<?xml version="1.0" standalone="no"?>
<!DOCTYPE svg PUBLIC "-//W3C//DTD SVG 1.1//EN" "http://www.w3.org/Graphics/SVG/1.1/DTD/svg11.dtd" >
<svg xmlns="http://www.w3.org/2000/svg" xmlns:xlink="http://www.w3.org/1999/xlink" version="1.1">
<metadata>
Created by FontForge 20190801 at Sun Jul 10 09:12:24 2016
 By www-data
(c) Copyright David Jonathan Ross, 2016. All rights reserved.
</metadata>
<defs>
<font id="OutputSansMedium" horiz-adv-x="580" >
  <font-face 
    font-family="OutputSansMedium"
    font-weight="500"
    font-stretch="semi-condensed"
    units-per-em="1000"
    panose-1="0 0 0 0 0 0 0 2 0 0"
    ascent="761"
    descent="-239"
    x-height="522"
    cap-height="696"
    bbox="-182 -251 1111 1170"
    underline-thickness="0"
    underline-position="0"
    unicode-range="U+0020-FEFF"
  />
<missing-glyph horiz-adv-x="676" 
d="M46 -217v957h585v-957h-585zM133 -131h411v784h-411v-784z" />
    <glyph glyph-name=".notdef" horiz-adv-x="676" 
d="M46 -217v957h585v-957h-585zM133 -131h411v784h-411v-784z" />
    <glyph glyph-name=".null" horiz-adv-x="0" 
 />
    <glyph glyph-name="nonmarkingreturn" horiz-adv-x="333" 
 />
    <glyph glyph-name="space" unicode=" " horiz-adv-x="274" 
 />
    <glyph glyph-name="space" unicode="&#xa0;" horiz-adv-x="274" 
 />
    <glyph glyph-name="exclam" unicode="!" horiz-adv-x="329" 
d="M127 216l-23 480h120l-23 -480h-74zM166 -7q-34 0 -51.5 19.5t-17.5 51.5t17.5 51t51.5 19q32 0 50 -19t18 -51t-18 -51.5t-50 -19.5z" />
    <glyph glyph-name="quotedbl" unicode="&#x22;" horiz-adv-x="450" 
d="M296 425l-22 271h106l-21 -271h-63zM92 425l-21 271h106l-22 -271h-63z" />
    <glyph glyph-name="numbersign" unicode="#" horiz-adv-x="755" 
d="M439 246l9 204h-132l-8 -204h131zM428 0l8 170h-132l-8 -170h-84l9 170h-135v76h138l9 204h-147v76h150l8 170h83l-7 -170h132l7 170h84l-6 -170h133v-76h-138l-9 -204h147v-76h-151l-7 -170h-84z" />
    <glyph glyph-name="dollar" unicode="$" horiz-adv-x="596" 
d="M170 494q0 -30 21.5 -49t77.5 -39v175q-99 -11 -99 -87zM433 203q0 34 -23.5 56t-82.5 42v-190q51 4 78.5 27.5t27.5 64.5zM335 -44h-74v85q-111 8 -184 63l27 70q75 -52 165 -63v207q-104 29 -145 66t-41 104q0 69 45.5 113t132.5 53v86h74v-85q96 -6 160 -51l-25 -71
q-72 41 -143 48v-193q106 -31 149 -71t43 -107q0 -70 -48 -114.5t-136 -53.5v-86z" />
    <glyph glyph-name="percent" unicode="%" horiz-adv-x="921" 
d="M230 334q-157 0 -157 188q0 183 157 183q155 0 155 -180q0 -191 -155 -191zM218 0l400 696h91l-398 -696h-93zM230 403q36 0 53.5 25t17.5 95q0 64 -18 89t-53 25q-36 0 -54 -24.5t-18 -89.5q0 -70 17.5 -95t54.5 -25zM692 -12q-155 0 -155 188q0 183 155 183
q156 0 156 -180q0 -191 -156 -191zM692 57q36 0 53.5 25t17.5 95q0 64 -18 89t-53 25q-36 0 -54 -25t-18 -89q0 -70 18 -95t54 -25z" />
    <glyph glyph-name="ampersand" unicode="&#x26;" horiz-adv-x="700" 
d="M247 523q0 -55 24 -110q142 58 142 145q0 35 -20.5 53t-55.5 18q-42 0 -66 -30.5t-24 -75.5zM288 68q71 0 129 55q-118 89 -188 198q-74 -51 -74 -132q0 -60 34.5 -90.5t98.5 -30.5zM638 -2q-77 29 -157 80q-84 -87 -197 -87q-103 0 -163 49.5t-60 144.5q0 124 133 196
q-36 77 -36 141q0 78 51 130.5t129 52.5q70 0 115.5 -36t45.5 -102q0 -71 -54 -120.5t-144 -90.5q60 -93 165 -170q40 62 77 176l76 -23q-39 -121 -88 -197q62 -38 137 -69z" />
    <glyph glyph-name="quotesingle" unicode="'" horiz-adv-x="316" 
d="M127 425l-22 271h105l-21 -271h-62z" />
    <glyph glyph-name="parenleft" unicode="(" horiz-adv-x="446" 
d="M363 -183q-142 32 -217 147.5t-75 296.5q0 180 75.5 296.5t216.5 147.5l10 -75q-205 -63 -205 -369t205 -367z" />
    <glyph glyph-name="parenright" unicode=")" horiz-adv-x="446" 
d="M367 261q0 -181 -75.5 -297t-216.5 -147l-10 77q205 60 205 367q0 306 -205 369l10 75q141 -30 216.5 -147t75.5 -297z" />
    <glyph glyph-name="asterisk" unicode="*" horiz-adv-x="501" 
d="M395 355l-128 109l19 -168h-72l19 168l-128 -109l-36 64l152 78l-152 79l36 63l128 -110l-19 167h72l-19 -167l128 110l37 -63l-152 -79l152 -78z" />
    <glyph glyph-name="plus" unicode="+" horiz-adv-x="626" 
d="M273 39v226h-199v80h199v226h80v-226h199v-80h-199v-226h-80z" />
    <glyph glyph-name="comma" unicode="," horiz-adv-x="331" 
d="M69 -135q26 89 37 143t16 134h110q-12 -91 -37 -152.5t-66 -124.5h-60z" />
    <glyph glyph-name="hyphen" unicode="-" horiz-adv-x="522" 
d="M74 265v80h373v-80h-373z" />
    <glyph glyph-name="hyphen" unicode="&#x2011;" horiz-adv-x="522" 
d="M74 265v80h373v-80h-373z" />
    <glyph glyph-name="hyphen" unicode="&#x2010;" horiz-adv-x="522" 
d="M74 265v80h373v-80h-373z" />
    <glyph glyph-name="hyphen" unicode="&#xad;" horiz-adv-x="522" 
d="M74 265v80h373v-80h-373z" />
    <glyph glyph-name="period" unicode="." horiz-adv-x="331" 
d="M166 -6q-34 0 -54 20t-20 56q0 34 20 54.5t54 20.5t54 -20.5t20 -54.5q0 -36 -20 -56t-54 -20z" />
    <glyph glyph-name="slash" unicode="/" horiz-adv-x="495" 
d="M44 -174l320 870h86l-319 -870h-87z" />
    <glyph glyph-name="zero" unicode="0" horiz-adv-x="626" 
d="M313 -9q-117 0 -184 89t-67 276q0 177 67.5 263t184.5 86q116 0 183 -86t67 -263q0 -187 -67 -276t-184 -89zM313 71q75 0 114.5 64.5t39.5 220.5q0 144 -39.5 206.5t-114.5 62.5q-155 0 -155 -269q0 -155 40 -220t115 -65z" />
    <glyph glyph-name="one" unicode="1" horiz-adv-x="626" 
d="M118 0v80h181v471q-21 -50 -74.5 -84.5t-114.5 -35.5l-8 89q78 2 132.5 50t66.5 126h94v-616h167v-80h-444z" />
    <glyph glyph-name="two" unicode="2" horiz-adv-x="626" 
d="M86 0v119q0 87 53 142.5t160 105.5q91 42 118 72t27 76q0 51 -33 81.5t-88 30.5q-63 0 -96 -32.5t-44 -108.5l-97 9q24 210 237 210q99 0 159 -52t60 -138q0 -72 -44.5 -123t-148.5 -98q-94 -43 -130 -80t-36 -95v-39h367v-80h-464z" />
    <glyph glyph-name="three" unicode="3" horiz-adv-x="626" 
d="M317 -9q-108 0 -171 45.5t-81 144.5l97 23q17 -77 53 -106t102 -29q137 0 137 132q0 70 -31 99t-110 29h-96v80h96q69 0 97.5 23.5t28.5 80.5q0 58 -34 86t-94 28t-89.5 -25.5t-43.5 -90.5l-94 21q37 173 227 173q100 0 162.5 -49t62.5 -140q0 -62 -37 -101t-98 -44
q69 -7 110 -54.5t41 -116.5q0 -102 -62 -155.5t-173 -53.5z" />
    <glyph glyph-name="four" unicode="4" horiz-adv-x="626" 
d="M583 181h-117v-181h-96v181h-312v77l289 438h119v-438h117v-77zM150 258h220v338z" />
    <glyph glyph-name="five" unicode="5" horiz-adv-x="626" 
d="M316 -9q-111 0 -168.5 48t-74.5 155l97 11q13 -75 45.5 -105.5t100.5 -30.5q67 0 102.5 39.5t35.5 117.5t-34 116t-107 38q-85 0 -123 -48h-92v364h424v-77h-328v-199q55 44 135 44q223 0 223 -236q0 -109 -64.5 -173t-171.5 -64z" />
    <glyph glyph-name="six" unicode="6" horiz-adv-x="626" 
d="M563 221q0 -109 -64 -169.5t-184 -60.5q-119 0 -183.5 68.5t-64.5 190.5v163q0 143 63.5 217.5t185.5 74.5q194 0 240 -162l-102 -25q-18 56 -49 82t-90 26q-80 0 -115 -48t-35 -161v-55q54 72 177 72q104 0 162.5 -56t58.5 -157zM165 215q0 -146 149 -146q151 0 151 145
q0 146 -151 146q-149 0 -149 -145z" />
    <glyph glyph-name="seven" unicode="7" horiz-adv-x="626" 
d="M229 0q44 223 84.5 339.5t136.5 270.5h-373v86h472v-86q-103 -183 -145.5 -308t-70.5 -302h-104z" />
    <glyph glyph-name="eight" unicode="8" horiz-adv-x="626" 
d="M313 -9q-116 0 -182 53t-66 146q0 76 41.5 123t114.5 54q-65 5 -102.5 45.5t-37.5 107.5q0 86 62 135.5t170 49.5t170 -49.5t62 -135.5q0 -66 -37.5 -107t-103.5 -46q73 -7 115 -53.5t42 -122.5q0 -94 -66 -147t-182 -53zM178 514q0 -110 135 -110t135 110
q0 113 -135 113t-135 -113zM162 197q0 -128 151 -128q150 0 150 128q0 129 -150 129q-151 0 -151 -129z" />
    <glyph glyph-name="nine" unicode="9" horiz-adv-x="626" 
d="M161 482q0 -146 150 -146t150 145q0 146 -150 146t-150 -145zM309 -9q-102 0 -159.5 41t-80.5 121l102 25q19 -56 50 -82t90 -26q80 0 115 48t35 161v55q-57 -72 -177 -72q-104 0 -163 56t-59 158q0 108 64.5 168.5t184.5 60.5q119 0 183.5 -68.5t64.5 -190.5v-162
q0 -144 -63.5 -218.5t-186.5 -74.5z" />
    <glyph glyph-name="colon" unicode=":" horiz-adv-x="339" 
d="M170 328q-34 0 -53.5 21t-19.5 56q0 34 19.5 54.5t53.5 20.5q33 0 53.5 -20.5t20.5 -54.5q0 -35 -20.5 -56t-53.5 -21zM170 -6q-34 0 -53.5 20t-19.5 56q0 34 19.5 54t53.5 20q33 0 53.5 -20t20.5 -54q0 -35 -20.5 -55.5t-53.5 -20.5z" />
    <glyph glyph-name="semicolon" unicode=";" horiz-adv-x="339" 
d="M170 328q-34 0 -53.5 21t-19.5 56q0 34 19.5 54.5t53.5 20.5q33 0 53.5 -20.5t20.5 -54.5q0 -35 -20.5 -56t-53.5 -21zM72 -135q26 80 33.5 124t15.5 148h118q-10 -71 -27.5 -122.5t-30.5 -73t-49 -76.5h-60z" />
    <glyph glyph-name="less" unicode="&#x3c;" horiz-adv-x="626" 
d="M548 30l-470 231v88l470 230v-85l-393 -189l393 -189v-86z" />
    <glyph glyph-name="equal" unicode="=" horiz-adv-x="626" 
d="M74 397v81h478v-81h-478zM74 132v80h478v-80h-478z" />
    <glyph glyph-name="greater" unicode="&#x3e;" horiz-adv-x="626" 
d="M78 30v84l396 191l-396 191v83l470 -230v-88z" />
    <glyph glyph-name="question" unicode="?" horiz-adv-x="555" 
d="M274 209h-78l-4 145q119 15 169.5 52.5t50.5 98.5q0 55 -37.5 87.5t-105.5 32.5q-115 0 -179 -102l-58 60q80 122 238 122q107 0 173 -55t66 -151q0 -171 -232 -209zM236 -7q-34 0 -52 19.5t-18 51.5t18 51t52 19q32 0 49.5 -19t17.5 -51t-17.5 -51.5t-49.5 -19.5z" />
    <glyph glyph-name="at" unicode="@" horiz-adv-x="937" 
d="M529 -172q-199 0 -319.5 114.5t-120.5 321.5q0 211 105 331t276 120q166 0 272 -117.5t106 -302.5q0 -110 -38 -175.5t-118 -65.5q-88 0 -125 72q-54 -72 -136 -72q-65 0 -107 50.5t-42 140.5q0 113 56 174.5t144 61.5q74 0 145 -29v-196q0 -66 16 -97.5t53 -31.5
q42 -1 60 43.5t18 124.5q0 158 -83.5 253.5t-222.5 95.5q-142 0 -223.5 -96.5t-81.5 -283.5q0 -177 98 -270.5t268 -93.5v-72zM442 127q58 0 107 62q-5 25 -5 66v142q-32 13 -64 13q-52 0 -83.5 -42.5t-31.5 -122.5q0 -118 77 -118z" />
    <glyph glyph-name="A" unicode="A" horiz-adv-x="637" 
d="M417 274l-102 317l-101 -317h203zM506 0l-63 195h-255l-62 -195h-94l240 696h94l241 -696h-101z" />
    <glyph glyph-name="B" unicode="B" horiz-adv-x="647" 
d="M86 0v696h254q104 0 160.5 -45.5t56.5 -129.5q0 -129 -124 -150q80 -7 119.5 -52t39.5 -118q0 -93 -59 -147t-167 -54h-280zM181 619v-220h164q62 0 89.5 27.5t27.5 83.5t-30 82.5t-98 26.5h-153zM181 325v-248h178q73 0 105 31t32 96q0 62 -32 91.5t-105 29.5h-178z" />
    <glyph glyph-name="C" unicode="C" horiz-adv-x="633" 
d="M329 -9q-128 0 -198.5 90t-70.5 275q0 175 71 262t199 87q108 0 172.5 -58t75.5 -160l-93 -20q-9 80 -46.5 119t-109.5 39q-84 0 -128 -63t-44 -206q0 -154 43.5 -219.5t128.5 -65.5q75 0 112 39t44 115l93 -19q-9 -98 -73.5 -156.5t-175.5 -58.5z" />
    <glyph glyph-name="D" unicode="D" horiz-adv-x="666" 
d="M86 0v696h237q130 0 207 -85.5t77 -258.5q0 -179 -77.5 -265.5t-207.5 -86.5h-236zM183 80h131q95 0 145 62.5t50 209.5q0 265 -195 265h-131v-537z" />
    <glyph glyph-name="E" unicode="E" horiz-adv-x="576" 
d="M86 0v696h434v-79h-337v-204h298v-80h-298v-254h337v-79h-434z" />
    <glyph glyph-name="F" unicode="F" horiz-adv-x="561" 
d="M86 0v696h432v-79h-335v-218h279v-79h-279v-320h-97z" />
    <glyph glyph-name="G" unicode="G" horiz-adv-x="645" 
d="M588 292q0 -153 -69 -227t-189 -74q-127 0 -198.5 90.5t-71.5 274.5q0 175 71.5 262t198.5 87q104 0 166.5 -50t76.5 -138l-94 -20q-12 62 -47 95t-102 33q-84 0 -128.5 -63t-44.5 -206q0 -154 44 -219.5t128 -65.5q80 0 120.5 46t42.5 160h-167v81h263v-66z" />
    <glyph glyph-name="H" unicode="H" horiz-adv-x="676" 
d="M86 0v696h97v-280h310v280h97v-696h-97v336h-310v-336h-97z" />
    <glyph glyph-name="I" unicode="I" horiz-adv-x="467" 
d="M49 0v79h137v538h-137v79h370v-79h-136v-538h136v-79h-370z" />
    <glyph glyph-name="J" unicode="J" horiz-adv-x="555" 
d="M252 -9q-99 0 -158.5 57.5t-66.5 166.5l94 15q7 -81 37.5 -119t93.5 -38q65 0 96.5 41t31.5 114v468h97v-469q0 -107 -59 -171.5t-166 -64.5z" />
    <glyph glyph-name="K" unicode="K" horiz-adv-x="612" 
d="M470 0l-189 347l-99 -120v-227h-96v696h96v-349l294 349h105l-233 -278l231 -418h-109z" />
    <glyph glyph-name="L" unicode="L" horiz-adv-x="508" 
d="M86 0v696h97v-616h293v-80h-390z" />
    <glyph glyph-name="M" unicode="M" horiz-adv-x="773" 
d="M355 123l-180 386l3 -509h-92v696h97l208 -449l206 449h90v-696h-94l2 509l-178 -386h-62z" />
    <glyph glyph-name="N" unicode="N" horiz-adv-x="676" 
d="M481 0l-308 558v-558h-87v696h109l308 -554v554h87v-696h-109z" />
    <glyph glyph-name="O" unicode="O" horiz-adv-x="664" 
d="M331 -9q-128 0 -199.5 89.5t-71.5 275.5q0 176 72.5 262.5t199.5 86.5q128 0 200.5 -86.5t72.5 -262.5q0 -186 -72.5 -275.5t-201.5 -89.5zM331 71q88 0 132 64.5t44 220.5q0 144 -44.5 206.5t-131.5 62.5q-86 0 -130 -62.5t-44 -206.5q0 -156 44 -220.5t130 -64.5z" />
    <glyph glyph-name="P" unicode="P" horiz-adv-x="595" 
d="M86 0v696h209q115 0 183.5 -59t68.5 -179q0 -121 -68.5 -181t-183.5 -60h-112v-217h-97zM183 296h109q74 0 116 36.5t42 125.5q0 159 -158 159h-109v-321z" />
    <glyph glyph-name="Q" unicode="Q" horiz-adv-x="664" 
d="M567 -170q-126 -23 -190.5 17t-69.5 147q-117 8 -182 96.5t-65 265.5q0 176 72.5 262.5t199.5 86.5q128 0 200.5 -86.5t72.5 -262.5q0 -317 -212 -358q4 -62 43 -82.5t118 -3.5zM331 71q88 0 132 64.5t44 220.5q0 144 -44.5 206.5t-131.5 62.5q-86 0 -130 -62.5
t-44 -206.5q0 -156 44 -220.5t130 -64.5z" />
    <glyph glyph-name="R" unicode="R" horiz-adv-x="631" 
d="M183 343h160q64 0 97.5 36t33.5 101t-33.5 101t-97.5 36h-160v-274zM183 0h-97v696h269q101 0 158.5 -59t57.5 -157q0 -76 -42 -133t-116 -75l170 -272h-110l-166 265h-124v-265z" />
    <glyph glyph-name="S" unicode="S" horiz-adv-x="616" 
d="M305 -6q-170 0 -254 122l53 62q72 -105 206 -105q70 0 110 28t40 81q0 52 -36 79t-139 50q-112 24 -161.5 69t-49.5 126q0 87 61.5 141t163.5 54q156 0 235 -113l-52 -60q-75 93 -181 93q-61 0 -96 -25.5t-35 -77.5q0 -49 31.5 -75t129.5 -48q120 -25 172 -73t52 -131
q0 -90 -68.5 -143.5t-181.5 -53.5z" />
    <glyph glyph-name="T" unicode="T" horiz-adv-x="555" 
d="M230 0v617h-198v79h492v-79h-198v-617h-96z" />
    <glyph glyph-name="U" unicode="U" horiz-adv-x="659" 
d="M329 -9q-119 0 -185.5 72.5t-66.5 186.5v446h97v-443q0 -83 37.5 -131.5t117.5 -48.5q81 0 118.5 48.5t37.5 131.5v443h95v-446q0 -114 -66.5 -186.5t-184.5 -72.5z" />
    <glyph glyph-name="V" unicode="V" horiz-adv-x="635" 
d="M364 0h-94l-240 696h101l189 -587l188 587h97z" />
    <glyph glyph-name="W" unicode="W" horiz-adv-x="840" 
d="M556 0l-137 486l-133 -486h-97l-155 696h97l111 -566l136 497h84l139 -497l111 566h96l-156 -696h-96z" />
    <glyph glyph-name="X" unicode="X" horiz-adv-x="630" 
d="M479 0l-172 275l-165 -275h-102l218 354l-213 342h108l168 -268l162 268h101l-214 -346l219 -350h-110z" />
    <glyph glyph-name="Y" unicode="Y" horiz-adv-x="601" 
d="M349 0h-97v261l-230 435h106l175 -349l173 349h101l-228 -435v-261z" />
    <glyph glyph-name="Z" unicode="Z" horiz-adv-x="589" 
d="M533 0h-476v80l360 537h-360v79h476v-79l-365 -537h365v-80z" />
    <glyph glyph-name="bracketleft" unicode="[" horiz-adv-x="446" 
d="M86 -174v870h305v-77h-208v-716h208v-77h-305z" />
    <glyph glyph-name="backslash" unicode="\" horiz-adv-x="495" 
d="M364 -174l-320 870h87l319 -870h-86z" />
    <glyph glyph-name="bracketright" unicode="]" horiz-adv-x="446" 
d="M56 -174v77h206v716h-206v77h303v-870h-303z" />
    <glyph glyph-name="asciicircum" unicode="^" horiz-adv-x="755" 
d="M570 174l-191 415l-193 -415h-93l240 522h90l239 -522h-92z" />
    <glyph glyph-name="underscore" unicode="_" horiz-adv-x="631" 
d="M77 -166v82h477v-82h-477z" />
    <glyph glyph-name="grave" unicode="`" horiz-adv-x="314" 
d="M241 419h-60q-32 50 -47 77t-31 78.5t-26 121.5h111q7 -94 16.5 -142t36.5 -135z" />
    <glyph glyph-name="a" unicode="a" horiz-adv-x="541" 
d="M233 64q65 0 117 55v109h-121q-40 0 -63.5 -19.5t-23.5 -59.5q0 -85 91 -85zM514 1q-51 -12 -91 7t-48 62q-69 -79 -169 -79q-69 0 -113 40t-44 111q0 72 46.5 112.5t125.5 40.5h128v59q0 49 -25 76t-73 27q-43 0 -69 -19t-45 -65l-74 39q53 120 195 120
q82 0 133.5 -45.5t51.5 -123.5v-238q0 -35 18.5 -47.5t52.5 -2.5v-74z" />
    <glyph glyph-name="b" unicode="b" horiz-adv-x="572" 
d="M307 -9q-77 0 -130 32v-23h-93v716h97v-277q61 93 153 93q82 0 131 -67t49 -199q0 -135 -58 -205t-149 -70zM293 69q125 2 125 197q0 100 -30 141t-85 41q-73 0 -122 -75v-269q45 -34 112 -35z" />
    <glyph glyph-name="c" unicode="c" horiz-adv-x="523" 
d="M277 -9q-104 0 -161.5 68.5t-57.5 202.5q0 132 58 201t161 69q75 0 126 -38t73 -111l-89 -27q-14 52 -41 74.5t-69 22.5q-122 0 -122 -191q0 -101 30 -147t92 -46q44 0 70 21t40 74l89 -28q-45 -145 -199 -145z" />
    <glyph glyph-name="d" unicode="d" horiz-adv-x="572" 
d="M280 453q-125 0 -125 -197q0 -182 114 -182q73 0 123 76v269q-49 34 -112 34zM265 532q68 0 127 -33v217h96v-716h-94v83q-56 -92 -156 -92q-81 0 -130.5 67t-49.5 198q0 135 58 205.5t149 70.5z" />
    <glyph glyph-name="e" unicode="e" horiz-adv-x="547" 
d="M280 457q-57 0 -87.5 -35.5t-37.5 -112.5h239q-1 76 -31.5 112t-82.5 36zM481 74q-30 -41 -81 -62t-107 -21q-109 0 -172 70.5t-63 201.5q0 132 60 200.5t164 68.5q91 0 149 -63.5t58 -176.5v-55h-335q9 -170 141 -170q81 0 129 63z" />
    <glyph glyph-name="f" unicode="f" horiz-adv-x="419" 
d="M139 0v444h-102v78h102v45q0 62 37.5 101t93 44.5t118.5 -12.5l-17 -71q-25 8 -47 10.5t-42.5 -2t-32.5 -23t-12 -49.5v-43h143v-78h-143v-444h-98z" />
    <glyph glyph-name="g" unicode="g" horiz-adv-x="577" 
d="M277 268q45 0 72.5 23t27.5 72q0 48 -28 71t-72 23t-71.5 -23t-27.5 -71t27.5 -71.5t71.5 -23.5zM538 -14q0 -79 -72 -126.5t-194 -47.5q-111 0 -165 34t-54 88q0 70 83 110q-64 28 -64 91q0 36 20.5 66t55.5 44q-58 47 -58 120q0 70 53 115.5t133 45.5q26 0 46 -4h202
v-70q-61 5 -98 15q38 -43 38 -102q0 -71 -53 -117t-136 -46q-44 0 -82 16q-43 -22 -43 -58q0 -49 75 -49h158q72 0 113.5 -32t41.5 -93zM286 -118q77 0 120.5 24.5t43.5 66.5q0 55 -72 55h-158q-11 0 -29 2q-50 -34 -50 -76q0 -72 145 -72z" />
    <glyph glyph-name="h" unicode="h" 
d="M181 0h-97v716h97v-284q61 100 165 100q71 0 113 -47.5t42 -126.5v-358h-97v339q0 54 -24 81.5t-66 27.5q-82 0 -133 -90v-358z" />
    <glyph glyph-name="i" unicode="i" horiz-adv-x="268" 
d="M133 612q-29 0 -46 14.5t-17 42.5t17 43.5t46 15.5t46.5 -15.5t17.5 -44.5q0 -27 -17.5 -41.5t-46.5 -14.5zM85 0v522h97v-522h-97z" />
    <glyph glyph-name="j" unicode="j" horiz-adv-x="283" 
d="M148 612q-29 0 -46 14.5t-17 42.5q0 29 17.5 44.5t45.5 15.5q29 0 46 -16t17 -45q0 -27 -17 -41.5t-46 -14.5zM39 -181q-38 0 -97 19l17 77q44 -19 71 -19q70 0 70 83v543h96v-545q0 -78 -43.5 -118t-113.5 -40z" />
    <glyph glyph-name="k" unicode="k" horiz-adv-x="529" 
d="M395 0l-136 240l-80 -101v-139h-95v716h95v-466l211 272h102l-168 -211l176 -311h-105z" />
    <glyph glyph-name="l" unicode="l" horiz-adv-x="267" 
d="M85 0v716h97v-716h-97z" />
    <glyph glyph-name="m" unicode="m" horiz-adv-x="855" 
d="M181 373v-373h-97v522h96v-75q61 85 161 85q47 0 81 -25.5t48 -71.5q69 97 169 97q64 0 100 -42.5t36 -116.5v-373h-96v355q0 46 -19 69.5t-52 23.5q-76 0 -129 -75v-373h-97v355q0 93 -72 93q-76 0 -129 -75z" />
    <glyph glyph-name="n" unicode="n" 
d="M181 0h-97v522h96v-90q60 100 165 100q72 0 114 -47t42 -127v-358h-97v339q0 54 -24 81.5t-66 27.5q-81 0 -133 -90v-358z" />
    <glyph glyph-name="o" unicode="o" horiz-adv-x="553" 
d="M276 -9q-101 0 -159.5 68t-58.5 201t59 202.5t160 69.5q100 0 159 -69.5t59 -202.5t-58.5 -201t-160.5 -68zM276 69q62 0 91.5 45t29.5 145t-30 147t-91 47q-121 0 -121 -193q0 -100 30 -145.5t91 -45.5z" />
    <glyph glyph-name="p" unicode="p" horiz-adv-x="572" 
d="M293 69q125 2 125 197q0 100 -30 141t-85 41q-73 0 -122 -75v-269q45 -34 112 -35zM307 -9q-75 0 -126 32v-197h-97v696h94v-83q60 93 156 93q81 0 130.5 -67.5t49.5 -198.5q0 -135 -58 -205t-149 -70z" />
    <glyph glyph-name="q" unicode="q" horiz-adv-x="572" 
d="M265 532q71 0 130 -33v23h93v-696h-97v257q-61 -92 -153 -92q-81 0 -130.5 67t-49.5 198q0 135 58 205.5t149 70.5zM279 453q-125 -2 -125 -197q0 -100 30.5 -141t84.5 -41q72 0 122 75v270q-46 33 -112 34z" />
    <glyph glyph-name="r" unicode="r" horiz-adv-x="395" 
d="M181 0h-97v522h96v-89q56 98 149 98q33 0 57 -11l-16 -85q-25 9 -54 9q-85 0 -135 -77v-367z" />
    <glyph glyph-name="s" unicode="s" horiz-adv-x="506" 
d="M256 -9q-119 0 -204 64l39 68q73 -55 166 -55q106 0 106 71q0 35 -23 50t-87 28q-96 17 -141.5 53t-45.5 107t52.5 113t130.5 42q104 0 188 -63l-39 -67q-73 52 -148 52q-41 0 -66.5 -17t-25.5 -52q0 -34 23.5 -50t87.5 -30q97 -17 141 -52t44 -105q0 -74 -56.5 -115.5
t-141.5 -41.5z" />
    <glyph glyph-name="t" unicode="t" horiz-adv-x="431" 
d="M290 -8q-79 0 -120.5 45t-41.5 131v276h-100v78h100v144h97v-144h162v-78h-162v-273q0 -100 76 -100q37 0 77 17l16 -76q-46 -20 -104 -20z" />
    <glyph glyph-name="u" unicode="u" 
d="M399 522h97v-522h-96v90q-59 -99 -165 -99q-72 0 -114 47t-42 127v357h97v-339q0 -54 24 -81.5t66 -27.5q40 0 74.5 24t58.5 67v357z" />
    <glyph glyph-name="v" unicode="v" horiz-adv-x="508" 
d="M300 0h-93l-181 522h99l130 -405l131 405h96z" />
    <glyph glyph-name="w" unicode="w" horiz-adv-x="732" 
d="M470 0l-105 351l-103 -351h-91l-133 522h90l92 -402l107 362h77l111 -366l93 406h86l-133 -522h-91z" />
    <glyph glyph-name="x" unicode="x" horiz-adv-x="504" 
d="M371 0l-123 193l-118 -193h-98l169 266l-164 256h99l121 -187l113 187h97l-164 -259l170 -263h-102z" />
    <glyph glyph-name="y" unicode="y" horiz-adv-x="512" 
d="M121 -181q-39 0 -79 9l11 79q31 -10 64 -10q40 0 61.5 26t36.5 78l-182 521h98l130 -402l126 402h96l-196 -560q-50 -143 -166 -143z" />
    <glyph glyph-name="z" unicode="z" horiz-adv-x="482" 
d="M428 0h-374v78l267 366h-267v78h374v-78l-263 -366h263v-78z" />
    <glyph glyph-name="braceleft" unicode="{" horiz-adv-x="453" 
d="M394 -111v-72q-138 -2 -196.5 35t-58.5 127v180q0 44 -25.5 63t-91.5 20v59q66 2 91.5 19.5t25.5 58.5v162q0 91 59 128.5t196 35.5v-73q-92 2 -127.5 -21t-35.5 -84v-153q0 -52 -27 -75.5t-92 -24.5v-4q64 -5 91.5 -31t27.5 -75v-167q0 -63 35.5 -86.5t127.5 -21.5z" />
    <glyph glyph-name="bar" unicode="|" horiz-adv-x="557" 
d="M237 -174v870h82v-870h-82z" />
    <glyph glyph-name="braceright" unicode="}" horiz-adv-x="453" 
d="M59 -111q92 -2 128 21.5t36 86.5v167q0 49 27 75t91 31v4q-65 1 -91.5 24.5t-26.5 75.5v153q0 61 -36 84t-128 21v73q137 2 196 -35.5t59 -128.5v-162q0 -41 25.5 -58.5t91.5 -19.5v-59q-66 -1 -91.5 -20t-25.5 -63v-180q0 -90 -58.5 -127t-196.5 -35v72z" />
    <glyph glyph-name="asciitilde" unicode="~" horiz-adv-x="755" 
d="M508 181q-50 0 -84 32.5t-68 91.5q-43 78 -62 98q-26 26 -54 27q-68 0 -68 -118v-123h-86v128q0 95 43.5 147t119.5 52q53 0 89.5 -33.5t69.5 -91.5q4 -8 14 -26t15 -26t14 -22.5t15 -21.5t14.5 -15t17.5 -11t18 -3q69 0 69 121v120h85v-126q0 -97 -43 -148.5t-119 -51.5
z" />
    <glyph glyph-name="exclamdown" unicode="&#xa1;" horiz-adv-x="329" 
d="M164 703q33 0 51 -19t18 -51q0 -33 -18 -52t-51 -19t-50.5 19t-17.5 52q0 32 17.5 51t50.5 19zM202 480l24 -480h-120l22 480h74z" />
    <glyph glyph-name="cent" unicode="&#xa2;" horiz-adv-x="534" 
d="M478 223q-41 -131 -169 -145v-122h-65v122q-89 11 -136.5 79t-47.5 191q0 119 48.5 187.5t135.5 79.5v125h65v-125q128 -14 169 -147l-87 -27q-22 83 -84 95v-379q62 11 84 93zM154 348q0 -169 92 -190v377q-92 -21 -92 -187z" />
    <glyph glyph-name="sterling" unicode="&#xa3;" horiz-adv-x="676" 
d="M609 198q-6 -101 -53.5 -154t-131.5 -53q-9 0 -19 1.5t-17.5 3t-18.5 5t-17 6t-17.5 8t-16 7.5t-17 8.5t-15.5 7.5q-25 11 -41.5 15.5t-37 3.5t-36.5 -12l-73 -53l-51 72l71 46q28 18 49 60.5t21 82.5q0 46 -16 89h-113v69h70q-22 46 -22 102q0 83 64 137.5t169 54.5
q115 0 171 -44.5t68 -140.5l-95 -10q-12 61 -43 86t-101 25q-66 0 -101.5 -30.5t-35.5 -79.5q0 -45 33 -100h180v-69h-142q12 -31 12 -82q0 -80 -79 -131l11 -19q9 6 17.5 9.5t17.5 4.5t14.5 1.5t15.5 -2t13.5 -3.5t15 -5t14.5 -5q11 -4 31.5 -12.5t36.5 -13.5t30 -5
q47 0 64.5 29t22.5 99z" />
    <glyph glyph-name="currency" unicode="&#xa4;" horiz-adv-x="731" 
d="M367 160q61 0 91 45t30 145q0 194 -121 194t-121 -193q0 -101 30 -146t91 -45zM367 81q-88 0 -142 50l-93 -99l-56 48l104 112q-32 66 -32 159q0 90 30 155l-102 111l56 49l90 -98q56 54 146 54q88 0 144 -54l88 94l55 -49l-100 -106q30 -61 30 -156t-30 -157l99 -110
l-54 -48l-91 95q-56 -50 -142 -50z" />
    <glyph glyph-name="brokenbar" unicode="&#xa6;" horiz-adv-x="571" 
d="M245 349v347h81v-347h-81zM245 -174v348h81v-348h-81z" />
    <glyph glyph-name="section" unicode="&#xa7;" horiz-adv-x="626" 
d="M335 173q48 2 78.5 21.5t30.5 60.5q0 33 -28 51t-78 30q-6 2 -20.5 5.5t-22.5 5.5q-48 -1 -79 -21t-31 -61q0 -33 27.5 -50.5t76.5 -30.5q6 -1 22 -5zM327 -180q-132 0 -221 81l40 73q90 -75 185 -75q52 0 85 20.5t33 63.5q0 48 -37.5 71.5t-116.5 42.5q-107 21 -157 56
t-50 98q0 95 106 128q-106 50 -106 153q0 82 61 125t154 43q130 0 221 -82l-42 -70q-88 72 -183 72q-54 0 -86 -22t-32 -61q0 -49 40 -72.5t127 -41.5q100 -22 146.5 -56.5t46.5 -99.5q0 -93 -102 -129q102 -46 102 -149q0 -82 -58.5 -125.5t-155.5 -43.5z" />
    <glyph glyph-name="dieresis" unicode="&#xa8;" horiz-adv-x="530" 
d="M356 612q-27 0 -43 14.5t-16 42.5q0 29 16 44.5t43 15.5q26 0 42 -16t16 -45q0 -27 -16 -41.5t-42 -14.5zM173 612q-27 0 -43 14.5t-16 42.5q0 29 16 44.5t43 15.5q26 0 42 -16t16 -45q0 -27 -16 -41.5t-42 -14.5z" />
    <glyph glyph-name="copyright" unicode="&#xa9;" horiz-adv-x="815" 
d="M408 -96q-76 0 -137.5 23t-109.5 71.5t-74.5 133t-26.5 199.5q0 212 95.5 310.5t253.5 98.5t252 -100t94 -316q0 -219 -94 -319.5t-253 -100.5zM408 -46q142 0 217.5 87.5t75.5 282.5q0 366 -293 366q-294 0 -294 -359q0 -200 75.5 -288.5t218.5 -88.5zM415 87
q-91 0 -135.5 59.5t-44.5 183.5q0 119 44.5 173t135.5 54q74 0 119 -45.5t50 -119.5l-72 -9q-6 109 -98 109q-51 0 -77.5 -35.5t-26.5 -126.5q0 -97 26.5 -137.5t78.5 -40.5q45 0 69.5 26.5t27.5 75.5l72 -8q-5 -71 -49.5 -115t-119.5 -44z" />
    <glyph glyph-name="ordfeminine" unicode="&#xaa;" horiz-adv-x="503" 
d="M203 334q59 0 101 48v82h-98q-69 0 -69 -65q0 -33 15 -49t51 -16zM183 274q-53 0 -89.5 30.5t-36.5 90.5q0 57 36.5 89.5t95.5 32.5h115v42q0 39 -19.5 61t-56.5 22q-74 0 -95 -64l-67 28q14 45 56.5 72t104.5 27q73 0 115 -34.5t42 -104.5v-167q0 -39 15 -49t55 -4v-67
q-109 -15 -119 59l-1 8q-62 -72 -151 -72z" />
    <glyph glyph-name="guillemotleft" unicode="&#xab;" horiz-adv-x="703" 
d="M346 74l-265 180v102l265 180v-96l-199 -135l199 -135v-96zM622 74l-264 180v102l264 180v-96l-198 -135l198 -135v-96z" />
    <glyph glyph-name="logicalnot" unicode="&#xac;" horiz-adv-x="731" 
d="M558 0v265h-472v88h559v-353h-87z" />
    <glyph glyph-name="registered" unicode="&#xae;" horiz-adv-x="700" 
d="M351 149q-131 0 -202 76t-71 222q0 148 71.5 225t202.5 77q129 0 199.5 -76.5t70.5 -223.5t-71 -223.5t-200 -76.5zM351 197q111 0 165.5 62t54.5 191q0 125 -55 188.5t-165 62.5q-111 1 -166 -62.5t-55 -190.5q0 -128 54.5 -189.5t166.5 -61.5zM308 452h59q41 0 41 49
q0 55 -41 55h-59v-104zM308 294h-65v314h126q45 0 75.5 -25t30.5 -82q0 -79 -64 -94l72 -113h-72l-70 107h-33v-107z" />
    <glyph glyph-name="macron" unicode="&#xaf;" horiz-adv-x="530" 
d="M107 644v76h315v-76h-315z" />
    <glyph glyph-name="degree" unicode="&#xb0;" horiz-adv-x="491" 
d="M246 297q-168 0 -168 202q0 103 44.5 152.5t123.5 49.5q167 0 167 -201q0 -203 -167 -203zM246 371q44 0 63.5 28t19.5 99q0 69 -20 99.5t-63 30.5q-44 0 -64.5 -30t-20.5 -99q0 -71 20 -99.5t65 -28.5z" />
    <glyph glyph-name="plusminus" unicode="&#xb1;" horiz-adv-x="626" 
d="M273 126v227h-199v79h199v227h80v-227h199v-79h-199v-227h-80zM74 8v79h478v-79h-478z" />
    <glyph glyph-name="acute" unicode="&#xb4;" horiz-adv-x="530" 
d="M176 598q62 94 95 165h128q-70 -90 -152 -165h-71z" />
    <glyph glyph-name="paragraph" unicode="&#xb6;" horiz-adv-x="626" 
d="M441 296h-88v-470h-97v470q-85 0 -138 48.5t-53 147.5q0 100 51 152t132 52h290v-870h-97v470z" />
    <glyph glyph-name="periodcentered" unicode="&#xb7;" horiz-adv-x="331" 
d="M166 261q-34 0 -54 20.5t-20 55.5q0 34 20 54.5t54 20.5t54 -20.5t20 -54.5q0 -35 -20.5 -55.5t-53.5 -20.5z" />
    <glyph glyph-name="cedilla" unicode="&#xb8;" horiz-adv-x="530" 
d="M266 -189q-87 0 -131 58l50 42q25 -40 79 -40t54 33q0 20 -18.5 29t-64.5 9v73h62v-37q46 -4 74.5 -25.5t28.5 -55.5q0 -42 -39 -64t-95 -22z" />
    <glyph glyph-name="ordmasculine" unicode="&#xba;" horiz-adv-x="518" 
d="M260 274q-175 0 -175 219q0 107 47 159.5t128 52.5q80 0 126 -52.5t46 -158.5q0 -220 -172 -220zM260 339q47 0 69 34.5t22 120.5q0 77 -22 110.5t-69 33.5q-49 0 -71 -33t-22 -111q0 -86 22 -120.5t71 -34.5z" />
    <glyph glyph-name="guillemotright" unicode="&#xbb;" horiz-adv-x="703" 
d="M358 74v96l199 135l-199 135v96l264 -180v-102zM81 74v96l199 135l-199 135v96l265 -180v-102z" />
    <glyph glyph-name="onequarter" unicode="&#xbc;" horiz-adv-x="963" 
d="M290 0l320 696h86l-319 -696h-87z" />
    <glyph glyph-name="onehalf" unicode="&#xbd;" horiz-adv-x="938" 
d="M267 0l320 696h87l-319 -696h-88z" />
    <glyph glyph-name="threequarters" unicode="&#xbe;" horiz-adv-x="983" 
d="M305 0l320 696h86l-319 -696h-87z" />
    <glyph glyph-name="questiondown" unicode="&#xbf;" horiz-adv-x="555" 
d="M320 705q33 0 51 -19.5t18 -51.5t-18 -51t-51 -19t-50.5 19t-17.5 51t17.5 51.5t50.5 19.5zM282 489h78l3 -144q-119 -16 -169.5 -53.5t-50.5 -98.5q0 -55 37.5 -87.5t105.5 -32.5q115 0 179 102l58 -60q-83 -122 -238 -122q-107 0 -173 55t-66 151q0 170 231 210z" />
    <glyph glyph-name="Agrave" unicode="&#xc0;" horiz-adv-x="637" 
d="M330 771q-80 74 -153 166h123q30 -63 96 -166h-66zM417 274l-102 317l-101 -317h203zM506 0l-63 195h-255l-62 -195h-94l240 696h94l241 -696h-101z" />
    <glyph glyph-name="Aacute" unicode="&#xc1;" horiz-adv-x="637" 
d="M231 771q64 97 95 166h128q-69 -89 -152 -166h-71zM417 274l-102 317l-101 -317h203zM506 0l-63 195h-255l-62 -195h-94l240 696h94l241 -696h-101z" />
    <glyph glyph-name="Acircumflex" unicode="&#xc2;" horiz-adv-x="637" 
d="M175 777l-38 45q79 62 142 131h78q71 -76 144 -131l-38 -45q-83 46 -145 97q-62 -52 -143 -97zM417 274l-102 317l-101 -317h203zM506 0l-63 195h-255l-62 -195h-94l240 696h94l241 -696h-101z" />
    <glyph glyph-name="Atilde" unicode="&#xc3;" horiz-adv-x="637" 
d="M386 782q-44 0 -82 51q-3 3 -9 12t-9 12.5t-8.5 9.5t-9 9t-8.5 5t-10 2q-37 0 -36 -82v-10h-73v13q0 67 29.5 109t81.5 42q30 0 48.5 -13t36.5 -38q4 -5 10.5 -14t10.5 -14t9.5 -10.5t11 -8t10.5 -2.5q36 0 36 81v10h73v-13q0 -67 -30 -109t-82 -42zM417 274l-102 317
l-101 -317h203zM506 0l-63 195h-255l-62 -195h-94l240 696h94l241 -696h-101z" />
    <glyph glyph-name="Adieresis" unicode="&#xc4;" horiz-adv-x="637" 
d="M411 786q-27 0 -43 14.5t-16 41.5q0 29 16 44.5t43 15.5q26 0 41.5 -15.5t15.5 -45.5q0 -26 -15.5 -40.5t-41.5 -14.5zM228 786q-27 0 -43 14.5t-16 41.5q0 29 16 44.5t43 15.5q26 0 42 -15.5t16 -45.5q0 -26 -16 -40.5t-42 -14.5zM417 274l-102 317l-101 -317h203z
M506 0l-63 195h-255l-62 -195h-94l240 696h94l241 -696h-101z" />
    <glyph glyph-name="Aring" unicode="&#xc5;" horiz-adv-x="637" 
d="M319 766q-63 0 -99.5 35t-36.5 99q0 65 37 101t99 36t99 -36t37 -101q0 -64 -36.5 -99t-99.5 -35zM319 823q67 0 67 77q0 80 -67 80t-67 -80q0 -77 67 -77zM417 274l-102 317l-101 -317h203zM506 0l-63 195h-255l-62 -195h-94l240 696h94l241 -696h-101z" />
    <glyph glyph-name="AE" unicode="&#xc6;" horiz-adv-x="842" 
d="M343 617l-119 -338h193v338h-74zM417 201h-220l-70 -201h-95l254 696h496v-79h-269v-204h229v-80h-229v-253h269v-80h-365v201z" />
    <glyph glyph-name="Ccedilla" unicode="&#xc7;" horiz-adv-x="633" 
d="M335 -189q-87 0 -131 58l50 42q25 -40 79 -40t54 33q0 20 -18.5 29t-64.5 9v50q-117 9 -180.5 98.5t-63.5 265.5q0 175 71 262t199 87q108 0 172.5 -58t75.5 -160l-93 -20q-9 80 -46.5 119t-109.5 39q-84 0 -128 -63t-44 -206q0 -154 43.5 -219.5t128.5 -65.5
q75 0 112 39t44 115l93 -19q-8 -89 -63 -146t-149 -67v-15q46 -4 75 -25.5t29 -55.5q0 -42 -39.5 -64t-95.5 -22z" />
    <glyph glyph-name="Egrave" unicode="&#xc8;" horiz-adv-x="576" 
d="M304 771q-84 78 -154 166h123q37 -75 97 -166h-66zM86 0v696h434v-79h-337v-204h298v-80h-298v-254h337v-79h-434z" />
    <glyph glyph-name="Eacute" unicode="&#xc9;" horiz-adv-x="576" 
d="M207 771q59 87 96 166h128q-72 -90 -153 -166h-71zM86 0v696h434v-79h-337v-204h298v-80h-298v-254h337v-79h-434z" />
    <glyph glyph-name="Ecircumflex" unicode="&#xca;" horiz-adv-x="576" 
d="M151 777l-37 45q73 57 142 131h77q74 -78 145 -131l-38 -45q-84 46 -145 97q-60 -50 -144 -97zM86 0v696h434v-79h-337v-204h298v-80h-298v-254h337v-79h-434z" />
    <glyph glyph-name="Edieresis" unicode="&#xcb;" horiz-adv-x="576" 
d="M392 786q-26 0 -42.5 14.5t-16.5 41.5q0 29 16.5 44.5t42.5 15.5q58 0 58 -61q0 -26 -16 -40.5t-42 -14.5zM209 786q-26 0 -42.5 14.5t-16.5 41.5q0 29 16 44.5t43 15.5q58 0 58 -61q0 -26 -16 -40.5t-42 -14.5zM86 0v696h434v-79h-337v-204h298v-80h-298v-254h337v-79
h-434z" />
    <glyph glyph-name="Igrave" unicode="&#xcc;" horiz-adv-x="467" 
d="M235 771q-84 78 -154 166h123q37 -75 97 -166h-66zM49 0v79h137v538h-137v79h370v-79h-136v-538h136v-79h-370z" />
    <glyph glyph-name="Iacute" unicode="&#xcd;" horiz-adv-x="467" 
d="M162 771q64 97 95 166h128q-75 -94 -152 -166h-71zM49 0v79h137v538h-137v79h370v-79h-136v-538h136v-79h-370z" />
    <glyph glyph-name="Icircumflex" unicode="&#xce;" horiz-adv-x="467" 
d="M87 777l-37 45q73 57 142 131h77q74 -78 145 -131l-38 -45q-84 46 -145 97q-60 -50 -144 -97zM49 0v79h137v538h-137v79h370v-79h-136v-538h136v-79h-370z" />
    <glyph glyph-name="Idieresis" unicode="&#xcf;" horiz-adv-x="467" 
d="M326 786q-26 0 -42.5 14.5t-16.5 41.5q0 29 16.5 44.5t42.5 15.5q58 0 58 -61q0 -26 -16 -40.5t-42 -14.5zM143 786q-26 0 -42.5 14.5t-16.5 41.5q0 29 16 44.5t43 15.5q58 0 58 -61q0 -26 -16 -40.5t-42 -14.5zM49 0v79h137v538h-137v79h370v-79h-136v-538h136v-79h-370
z" />
    <glyph glyph-name="Eth" unicode="&#xd0;" horiz-adv-x="666" 
d="M322 0h-236v341h-80v76h80v279h237q130 0 207 -85.5t77 -258.5q0 -179 -77.5 -265.5t-207.5 -86.5zM183 80h131q95 0 145 62.5t50 209.5q0 265 -195 265h-131v-200h155v-76h-155v-261z" />
    <glyph glyph-name="Ntilde" unicode="&#xd1;" horiz-adv-x="676" 
d="M421 782q-20 0 -36.5 9t-25 17.5t-21.5 24.5q-3 4 -10.5 14.5t-11 14.5t-9.5 10t-11 8.5t-11 2.5q-37 0 -36 -82v-10h-73v13q0 67 29 109t82 42q48 0 85 -51q3 -3 10 -13.5t10.5 -14.5t9.5 -10t11 -8.5t11 -2.5q35 0 35 81v10h74v-13q0 -67 -30 -109t-82 -42zM481 0
l-308 558v-558h-87v696h109l308 -554v554h87v-696h-109z" />
    <glyph glyph-name="Ograve" unicode="&#xd2;" horiz-adv-x="664" 
d="M334 771q-80 74 -153 166h123q30 -63 96 -166h-66zM331 -9q-128 0 -199.5 89.5t-71.5 275.5q0 176 72.5 262.5t199.5 86.5q128 0 200.5 -86.5t72.5 -262.5q0 -186 -72.5 -275.5t-201.5 -89.5zM331 71q88 0 132 64.5t44 220.5q0 144 -44.5 206.5t-131.5 62.5
q-86 0 -130 -62.5t-44 -206.5q0 -156 44 -220.5t130 -64.5z" />
    <glyph glyph-name="Oacute" unicode="&#xd3;" horiz-adv-x="664" 
d="M253 771q59 87 96 166h128q-72 -90 -153 -166h-71zM331 -9q-128 0 -199.5 89.5t-71.5 275.5q0 176 72.5 262.5t199.5 86.5q128 0 200.5 -86.5t72.5 -262.5q0 -186 -72.5 -275.5t-201.5 -89.5zM331 71q88 0 132 64.5t44 220.5q0 144 -44.5 206.5t-131.5 62.5
q-86 0 -130 -62.5t-44 -206.5q0 -156 44 -220.5t130 -64.5z" />
    <glyph glyph-name="Ocircumflex" unicode="&#xd4;" horiz-adv-x="664" 
d="M187 777l-38 45q77 60 143 131h77q77 -80 144 -131l-37 -45q-83 45 -146 97q-58 -49 -143 -97zM331 -9q-128 0 -199.5 89.5t-71.5 275.5q0 176 72.5 262.5t199.5 86.5q128 0 200.5 -86.5t72.5 -262.5q0 -186 -72.5 -275.5t-201.5 -89.5zM331 71q88 0 132 64.5t44 220.5
q0 144 -44.5 206.5t-131.5 62.5q-86 0 -130 -62.5t-44 -206.5q0 -156 44 -220.5t130 -64.5z" />
    <glyph glyph-name="Otilde" unicode="&#xd5;" horiz-adv-x="664" 
d="M398 782q-44 0 -82 51q-3 4 -10.5 14.5t-11 14.5t-9.5 10t-11.5 8.5t-11.5 2.5q-36 0 -35 -82v-10h-74v13q0 67 29.5 109t81.5 42q21 0 38 -8t26 -17.5t22 -25.5q3 -4 10 -14t10.5 -14t9 -10t11 -8.5t10.5 -2.5q36 0 36 81v10h73v-13q0 -68 -29.5 -109.5t-82.5 -41.5z
M331 -9q-128 0 -199.5 89.5t-71.5 275.5q0 176 72.5 262.5t199.5 86.5q128 0 200.5 -86.5t72.5 -262.5q0 -186 -72.5 -275.5t-201.5 -89.5zM331 71q88 0 132 64.5t44 220.5q0 144 -44.5 206.5t-131.5 62.5q-86 0 -130 -62.5t-44 -206.5q0 -156 44 -220.5t130 -64.5z" />
    <glyph glyph-name="Odieresis" unicode="&#xd6;" horiz-adv-x="664" 
d="M424 786q-27 0 -43 14.5t-16 41.5q0 29 16 44.5t43 15.5q26 0 42 -15.5t16 -45.5q0 -26 -16 -40.5t-42 -14.5zM241 786q-27 0 -43 14.5t-16 41.5q0 29 16 44.5t43 15.5q26 0 42 -15.5t16 -45.5q0 -26 -16 -40.5t-42 -14.5zM331 -9q-128 0 -199.5 89.5t-71.5 275.5
q0 176 72.5 262.5t199.5 86.5q128 0 200.5 -86.5t72.5 -262.5q0 -186 -72.5 -275.5t-201.5 -89.5zM331 71q88 0 132 64.5t44 220.5q0 144 -44.5 206.5t-131.5 62.5q-86 0 -130 -62.5t-44 -206.5q0 -156 44 -220.5t130 -64.5z" />
    <glyph glyph-name="multiply" unicode="&#xd7;" horiz-adv-x="626" 
d="M89 127l173 178l-173 179l51 50l173 -177l173 177l51 -50l-174 -178l174 -179l-51 -52l-174 178l-172 -177z" />
    <glyph glyph-name="Oslash" unicode="&#xd8;" horiz-adv-x="664" 
d="M157 356q0 -165 51 -231l180 492q-23 8 -57 8q-86 0 -130 -62.5t-44 -206.5zM331 71q88 0 132 64.5t44 220.5q0 164 -61 227l-184 -500q30 -12 69 -12zM331 -9q-50 0 -95 14l-35 -92h-73l46 125q-114 86 -114 318q0 176 72.5 262.5t199.5 86.5q46 0 83 -10l32 89h74
l-42 -117q126 -81 126 -311q0 -186 -72.5 -275.5t-201.5 -89.5z" />
    <glyph glyph-name="Ugrave" unicode="&#xd9;" horiz-adv-x="659" 
d="M338 771q-84 80 -153 166h123q30 -63 96 -166h-66zM329 -9q-119 0 -185.5 72.5t-66.5 186.5v446h97v-443q0 -83 37.5 -131.5t117.5 -48.5q81 0 118.5 48.5t37.5 131.5v443h95v-446q0 -114 -66.5 -186.5t-184.5 -72.5z" />
    <glyph glyph-name="Uacute" unicode="&#xda;" horiz-adv-x="659" 
d="M242 771q64 97 95 166h128q-69 -89 -152 -166h-71zM329 -9q-119 0 -185.5 72.5t-66.5 186.5v446h97v-443q0 -83 37.5 -131.5t117.5 -48.5q81 0 118.5 48.5t37.5 131.5v443h95v-446q0 -114 -66.5 -186.5t-184.5 -72.5z" />
    <glyph glyph-name="Ucircumflex" unicode="&#xdb;" horiz-adv-x="661" 
d="M185 777l-38 45q77 60 143 131h77q77 -80 144 -131l-37 -45q-83 45 -146 97q-58 -49 -143 -97zM329 -9q-119 0 -185.5 72.5t-66.5 186.5v446h97v-443q0 -83 37.5 -131.5t117.5 -48.5q81 0 118.5 48.5t37.5 131.5v443h95v-446q0 -114 -66.5 -186.5t-184.5 -72.5z" />
    <glyph glyph-name="Udieresis" unicode="&#xdc;" horiz-adv-x="659" 
d="M422 786q-27 0 -43 14.5t-16 41.5q0 29 16 44.5t43 15.5q26 0 42 -15.5t16 -45.5q0 -26 -16 -40.5t-42 -14.5zM239 786q-27 0 -43 14.5t-16 41.5q0 29 16 44.5t43 15.5q26 0 42 -15.5t16 -45.5q0 -26 -16 -40.5t-42 -14.5zM329 -9q-119 0 -185.5 72.5t-66.5 186.5v446h97
v-443q0 -83 37.5 -131.5t117.5 -48.5q81 0 118.5 48.5t37.5 131.5v443h95v-446q0 -114 -66.5 -186.5t-184.5 -72.5z" />
    <glyph glyph-name="Yacute" unicode="&#xdd;" horiz-adv-x="601" 
d="M225 771q64 97 95 166h128q-75 -94 -152 -166h-71zM349 0h-97v261l-230 435h106l175 -349l173 349h101l-228 -435v-261z" />
    <glyph glyph-name="Thorn" unicode="&#xde;" horiz-adv-x="591" 
d="M86 0v696h97v-113h112q115 0 183.5 -56t68.5 -168q0 -116 -68 -172.5t-184 -56.5h-112v-130h-97zM183 504v-296h109q158 0 158 151q0 145 -158 145h-109z" />
    <glyph glyph-name="germandbls" unicode="&#xdf;" horiz-adv-x="686" 
d="M438 -5q-51 0 -101.5 18.5t-83.5 50.5l46 66q68 -61 146 -61q91 0 91 72q0 38 -25 54.5t-89 31.5q-80 17 -114.5 49.5t-34.5 92.5q0 63 47 103t120 44q-13 111 -128 111q-61 0 -96 -35.5t-35 -100.5v-491h-97v503q0 96 63 151t166 55q99 0 161 -58t62 -152v-44
q-89 1 -130.5 -15.5t-41.5 -58.5q0 -35 25 -50t92 -29q79 -17 112.5 -52.5t33.5 -100.5q0 -74 -52 -114t-137 -40z" />
    <glyph glyph-name="agrave" unicode="&#xe0;" horiz-adv-x="541" 
d="M254 598q-84 76 -153 165h123q31 -66 96 -165h-66zM233 64q65 0 117 55v109h-121q-40 0 -63.5 -19.5t-23.5 -59.5q0 -85 91 -85zM514 1q-51 -12 -91 7t-48 62q-69 -79 -169 -79q-69 0 -113 40t-44 111q0 72 46.5 112.5t125.5 40.5h128v59q0 49 -25 76t-73 27
q-43 0 -69 -19t-45 -65l-74 39q53 120 195 120q82 0 133.5 -45.5t51.5 -123.5v-238q0 -35 18.5 -47.5t52.5 -2.5v-74z" />
    <glyph glyph-name="aacute" unicode="&#xe1;" horiz-adv-x="541" 
d="M180 598q63 94 95 165h128q-70 -90 -152 -165h-71zM233 64q65 0 117 55v109h-121q-40 0 -63.5 -19.5t-23.5 -59.5q0 -85 91 -85zM514 1q-51 -12 -91 7t-48 62q-69 -79 -169 -79q-69 0 -113 40t-44 111q0 72 46.5 112.5t125.5 40.5h128v59q0 49 -25 76t-73 27
q-43 0 -69 -19t-45 -65l-74 39q53 120 195 120q82 0 133.5 -45.5t51.5 -123.5v-238q0 -35 18.5 -47.5t52.5 -2.5v-74z" />
    <glyph glyph-name="acircumflex" unicode="&#xe2;" horiz-adv-x="541" 
d="M115 604l-38 44q77 60 143 131h77q71 -76 144 -131l-38 -44q-75 41 -145 96q-69 -56 -143 -96zM233 64q65 0 117 55v109h-121q-40 0 -63.5 -19.5t-23.5 -59.5q0 -85 91 -85zM514 1q-51 -12 -91 7t-48 62q-69 -79 -169 -79q-69 0 -113 40t-44 111q0 72 46.5 112.5
t125.5 40.5h128v59q0 49 -25 76t-73 27q-43 0 -69 -19t-45 -65l-74 39q53 120 195 120q82 0 133.5 -45.5t51.5 -123.5v-238q0 -35 18.5 -47.5t52.5 -2.5v-74z" />
    <glyph glyph-name="atilde" unicode="&#xe3;" horiz-adv-x="541" 
d="M324 608q-45 0 -82 52l-10.5 14t-11 14t-10 10t-11.5 8.5t-11 2.5q-37 0 -36 -82v-10h-73v13q0 67 29.5 109.5t81.5 42.5q21 0 38 -8.5t26 -17.5t21 -25l10.5 -14t11 -14.5t9 -10.5t11 -8.5t10.5 -2.5q36 0 36 81v10h73v-13q0 -67 -30 -109t-82 -42zM233 64q65 0 117 55
v109h-121q-40 0 -63.5 -19.5t-23.5 -59.5q0 -85 91 -85zM514 1q-51 -12 -91 7t-48 62q-69 -79 -169 -79q-69 0 -113 40t-44 111q0 72 46.5 112.5t125.5 40.5h128v59q0 49 -25 76t-73 27q-43 0 -69 -19t-45 -65l-74 39q53 120 195 120q82 0 133.5 -45.5t51.5 -123.5v-238
q0 -35 18.5 -47.5t52.5 -2.5v-74z" />
    <glyph glyph-name="adieresis" unicode="&#xe4;" horiz-adv-x="541" 
d="M356 612q-27 0 -43 14.5t-16 42.5q0 29 16 44.5t43 15.5q26 0 42 -16t16 -45q0 -27 -16 -41.5t-42 -14.5zM173 612q-27 0 -43 14.5t-16 42.5q0 29 16 44.5t43 15.5q26 0 42 -16t16 -45q0 -27 -16 -41.5t-42 -14.5zM233 64q65 0 117 55v109h-121q-40 0 -63.5 -19.5
t-23.5 -59.5q0 -85 91 -85zM514 1q-51 -12 -91 7t-48 62q-69 -79 -169 -79q-69 0 -113 40t-44 111q0 72 46.5 112.5t125.5 40.5h128v59q0 49 -25 76t-73 27q-43 0 -69 -19t-45 -65l-74 39q53 120 195 120q82 0 133.5 -45.5t51.5 -123.5v-238q0 -35 18.5 -47.5t52.5 -2.5v-74
z" />
    <glyph glyph-name="aring" unicode="&#xe5;" horiz-adv-x="541" 
d="M248 592q-63 0 -99.5 35t-36.5 100q0 64 37 100t99 36t99 -36t37 -100q0 -65 -36.5 -100t-99.5 -35zM248 649q67 0 67 78q0 37 -17 58t-50 21q-67 0 -67 -79q0 -78 67 -78zM233 64q65 0 117 55v109h-121q-40 0 -63.5 -19.5t-23.5 -59.5q0 -85 91 -85zM514 1
q-51 -12 -91 7t-48 62q-69 -79 -169 -79q-69 0 -113 40t-44 111q0 72 46.5 112.5t125.5 40.5h128v59q0 49 -25 76t-73 27q-43 0 -69 -19t-45 -65l-74 39q53 120 195 120q82 0 133.5 -45.5t51.5 -123.5v-238q0 -35 18.5 -47.5t52.5 -2.5v-74z" />
    <glyph glyph-name="ae" unicode="&#xe6;" horiz-adv-x="817" 
d="M561 457q-54 0 -83 -35t-35 -113h222q-3 148 -104 148zM751 74q-31 -40 -78.5 -61.5t-100.5 -21.5q-115 0 -174 86q-89 -86 -190 -86q-70 0 -114.5 40t-44.5 111q0 72 46.5 113t125.5 41h129v58q0 49 -25.5 76t-73.5 27q-43 0 -69 -19t-45 -65l-74 40q54 119 195 119
q101 0 151 -66q55 66 152 66q88 0 142.5 -63.5t54.5 -176.5v-55h-316q9 -170 133 -170q72 0 119 63zM232 64q71 0 136 77q-13 37 -16 87h-122q-40 0 -64 -20t-24 -60t23.5 -62t66.5 -22z" />
    <glyph glyph-name="ccedilla" unicode="&#xe7;" horiz-adv-x="521" 
d="M273 -189q-87 0 -131 58l50 42q25 -40 79 -40t54 33q0 20 -18.5 29t-64.5 9v51q-88 11 -136 79t-48 190q0 132 58 201t161 69q75 0 126 -38t73 -111l-89 -27q-14 52 -41 74.5t-69 22.5q-122 0 -122 -191q0 -101 30 -147t92 -46q44 0 70 21t40 74l89 -28
q-40 -132 -172 -144v-14q46 -4 75 -25.5t29 -55.5q0 -42 -39.5 -64t-95.5 -22z" />
    <glyph glyph-name="egrave" unicode="&#xe8;" horiz-adv-x="547" 
d="M286 598q-82 75 -154 165h123q38 -77 97 -165h-66zM280 457q-57 0 -87.5 -35.5t-37.5 -112.5h239q-1 76 -31.5 112t-82.5 36zM481 74q-30 -41 -81 -62t-107 -21q-109 0 -172 70.5t-63 201.5q0 132 60 200.5t164 68.5q91 0 149 -63.5t58 -176.5v-55h-335q9 -170 141 -170
q81 0 129 63z" />
    <glyph glyph-name="eacute" unicode="&#xe9;" horiz-adv-x="547" 
d="M199 598q58 84 96 165h128q-73 -92 -153 -165h-71zM280 457q-57 0 -87.5 -35.5t-37.5 -112.5h239q-1 76 -31.5 112t-82.5 36zM481 74q-30 -41 -81 -62t-107 -21q-109 0 -172 70.5t-63 201.5q0 132 60 200.5t164 68.5q91 0 149 -63.5t58 -176.5v-55h-335q9 -170 141 -170
q81 0 129 63z" />
    <glyph glyph-name="ecircumflex" unicode="&#xea;" horiz-adv-x="547" 
d="M131 604l-38 44q77 60 143 131h77q77 -80 144 -131l-37 -44q-75 40 -146 96q-64 -54 -143 -96zM280 457q-57 0 -87.5 -35.5t-37.5 -112.5h239q-1 76 -31.5 112t-82.5 36zM481 74q-30 -41 -81 -62t-107 -21q-109 0 -172 70.5t-63 201.5q0 132 60 200.5t164 68.5
q91 0 149 -63.5t58 -176.5v-55h-335q9 -170 141 -170q81 0 129 63z" />
    <glyph glyph-name="edieresis" unicode="&#xeb;" horiz-adv-x="547" 
d="M367 612q-27 0 -43 14.5t-16 42.5q0 29 16 44.5t43 15.5q26 0 42 -16t16 -45q0 -27 -16 -41.5t-42 -14.5zM184 612q-27 0 -43 14.5t-16 42.5q0 29 16 44.5t43 15.5q26 0 42 -16t16 -45q0 -27 -16 -41.5t-42 -14.5zM280 457q-57 0 -87.5 -35.5t-37.5 -112.5h239
q-1 76 -31.5 112t-82.5 36zM481 74q-30 -41 -81 -62t-107 -21q-109 0 -172 70.5t-63 201.5q0 132 60 200.5t164 68.5q91 0 149 -63.5t58 -176.5v-55h-335q9 -170 141 -170q81 0 129 63z" />
    <glyph glyph-name="igrave" unicode="&#xec;" horiz-adv-x="274" 
d="M148 598q-79 72 -153 165h123q31 -66 96 -165h-66zM85 0v522h97v-522h-97z" />
    <glyph glyph-name="iacute" unicode="&#xed;" horiz-adv-x="274" 
d="M67 598q58 84 96 165h128q-73 -92 -153 -165h-71zM85 0v522h97v-522h-97z" />
    <glyph glyph-name="icircumflex" unicode="&#xee;" horiz-adv-x="274" 
d="M-10 604l-38 44q77 60 143 131h77q71 -76 144 -131l-38 -44q-75 41 -145 96q-69 -56 -143 -96zM85 0v522h97v-522h-97z" />
    <glyph glyph-name="idieresis" unicode="&#xef;" horiz-adv-x="274" 
d="M230 612q-27 0 -43 14.5t-16 42.5q0 29 16 44.5t43 15.5q26 0 42 -16t16 -45q0 -27 -16 -41.5t-42 -14.5zM47 612q-27 0 -43 14.5t-16 42.5q0 29 16 44.5t43 15.5q26 0 42 -16t16 -45q0 -27 -16 -41.5t-42 -14.5zM85 0v522h97v-522h-97z" />
    <glyph glyph-name="eth" unicode="&#xf0;" horiz-adv-x="590" 
d="M295 -9q-101 0 -158 58.5t-57 176.5q0 99 51 155t133 56q106 0 153 -64v11q0 104 -64 170l-152 -75v65l102 50q-55 34 -136 54l38 68q127 -36 184 -80l132 64v-64l-88 -43q72 -91 75 -286l1 -47q0 -269 -214 -269zM296 69q61 0 88.5 36.5t27.5 115.5q0 76 -27 107t-89 31
q-64 0 -91 -30.5t-27 -104.5q0 -82 27.5 -118.5t90.5 -36.5z" />
    <glyph glyph-name="ntilde" unicode="&#xf1;" 
d="M373 608q-45 0 -82 52q-4 5 -11 14t-11 14t-9.5 10.5t-11 8t-11.5 2.5q-37 0 -36 -82v-10h-73v13q0 67 29.5 109.5t81.5 42.5q21 0 38 -8.5t26 -17.5t21 -25q2 -3 7.5 -10.5t7.5 -10.5t6.5 -9t7.5 -8.5t7 -6t8 -4.5t8 -1q36 0 36 81v10h73v-13q0 -67 -30 -109t-82 -42z
M181 0h-97v522h96v-90q60 100 165 100q72 0 114 -47t42 -127v-358h-97v339q0 54 -24 81.5t-66 27.5q-81 0 -133 -90v-358z" />
    <glyph glyph-name="ograve" unicode="&#xf2;" horiz-adv-x="553" 
d="M288 598q-82 75 -154 165h123q38 -77 97 -165h-66zM276 -9q-101 0 -159.5 68t-58.5 201t59 202.5t160 69.5q100 0 159 -69.5t59 -202.5t-58.5 -201t-160.5 -68zM276 69q62 0 91.5 45t29.5 145t-30 147t-91 47q-121 0 -121 -193q0 -100 30 -145.5t91 -45.5z" />
    <glyph glyph-name="oacute" unicode="&#xf3;" horiz-adv-x="553" 
d="M199 598q58 84 96 165h128q-73 -92 -153 -165h-71zM276 -9q-101 0 -159.5 68t-58.5 201t59 202.5t160 69.5q100 0 159 -69.5t59 -202.5t-58.5 -201t-160.5 -68zM276 69q62 0 91.5 45t29.5 145t-30 147t-91 47q-121 0 -121 -193q0 -100 30 -145.5t91 -45.5z" />
    <glyph glyph-name="ocircumflex" unicode="&#xf4;" horiz-adv-x="553" 
d="M133 604l-37 44q78 62 142 131h77q73 -77 144 -131l-37 -44q-75 40 -146 96q-64 -54 -143 -96zM276 -9q-101 0 -159.5 68t-58.5 201t59 202.5t160 69.5q100 0 159 -69.5t59 -202.5t-58.5 -201t-160.5 -68zM276 69q62 0 91.5 45t29.5 145t-30 147t-91 47q-121 0 -121 -193
q0 -100 30 -145.5t91 -45.5z" />
    <glyph glyph-name="otilde" unicode="&#xf5;" horiz-adv-x="553" 
d="M345 608q-46 0 -83 52l-10.5 14t-11 14t-9.5 10t-11.5 8.5t-11.5 2.5q-36 0 -35 -82v-10h-73v13q0 67 29 109.5t81 42.5q21 0 38.5 -8.5t26 -17t21.5 -25.5q2 -3 8.5 -12t9 -12.5t7.5 -9.5t8.5 -9t8.5 -5t10 -2q35 0 35 81v10h73v-13q0 -68 -29.5 -109.5t-81.5 -41.5z
M276 -9q-101 0 -159.5 68t-58.5 201t59 202.5t160 69.5q100 0 159 -69.5t59 -202.5t-58.5 -201t-160.5 -68zM276 69q62 0 91.5 45t29.5 145t-30 147t-91 47q-121 0 -121 -193q0 -100 30 -145.5t91 -45.5z" />
    <glyph glyph-name="odieresis" unicode="&#xf6;" horiz-adv-x="553" 
d="M369 612q-27 0 -43 14.5t-16 42.5q0 29 16 44.5t43 15.5q26 0 42 -16t16 -45q0 -27 -16 -41.5t-42 -14.5zM186 612q-27 0 -43 14.5t-16 42.5q0 29 16 44.5t43 15.5t42.5 -16t15.5 -45q0 -27 -16 -41.5t-42 -14.5zM276 -9q-101 0 -159.5 68t-58.5 201t59 202.5t160 69.5
q100 0 159 -69.5t59 -202.5t-58.5 -201t-160.5 -68zM276 69q62 0 91.5 45t29.5 145t-30 147t-91 47q-121 0 -121 -193q0 -100 30 -145.5t91 -45.5z" />
    <glyph glyph-name="divide" unicode="&#xf7;" horiz-adv-x="626" 
d="M317 455q-65 0 -65 66q0 67 65 67t65 -67q0 -66 -65 -66zM74 265v80h478v-80h-478zM317 20q-65 0 -65 66t65 66t65 -67q0 -65 -65 -65z" />
    <glyph glyph-name="oslash" unicode="&#xf8;" horiz-adv-x="553" 
d="M153 260q0 -96 29 -143l148 325q-21 11 -54 11q-62 0 -92.5 -46.5t-30.5 -146.5zM276 69q63 0 93.5 45t30.5 145q0 92 -25 138l-147 -319q21 -9 48 -9zM276 -9q-44 0 -80 13l-42 -91h-69l56 122q-83 69 -83 225q0 133 59 202.5t160 69.5q43 0 85 -16l43 94h69l-58 -127
q79 -71 79 -223q0 -133 -58.5 -201t-160.5 -68z" />
    <glyph glyph-name="ugrave" unicode="&#xf9;" 
d="M283 598q-82 75 -154 165h123q34 -71 97 -165h-66zM399 522h97v-522h-96v90q-59 -99 -165 -99q-72 0 -114 47t-42 127v357h97v-339q0 -54 24 -81.5t66 -27.5q40 0 74.5 24t58.5 67v357z" />
    <glyph glyph-name="uacute" unicode="&#xfa;" 
d="M218 598q62 91 96 165h128q-76 -95 -152 -165h-72zM399 522h97v-522h-96v90q-59 -99 -165 -99q-72 0 -114 47t-42 127v357h97v-339q0 -54 24 -81.5t66 -27.5q40 0 74.5 24t58.5 67v357z" />
    <glyph glyph-name="ucircumflex" unicode="&#xfb;" 
d="M146 604l-37 44q73 57 142 131h77q74 -78 145 -131l-38 -44q-77 41 -145 96q-67 -55 -144 -96zM399 522h97v-522h-96v90q-59 -99 -165 -99q-72 0 -114 47t-42 127v357h97v-339q0 -54 24 -81.5t66 -27.5q40 0 74.5 24t58.5 67v357z" />
    <glyph glyph-name="udieresis" unicode="&#xfc;" 
d="M386 612q-26 0 -42.5 14.5t-16.5 42.5t16.5 44t42.5 16q27 0 42.5 -16t15.5 -45q0 -27 -16 -41.5t-42 -14.5zM203 612q-27 0 -43 14.5t-16 42.5t16.5 44t42.5 16q27 0 42.5 -16t15.5 -45q0 -27 -16 -41.5t-42 -14.5zM399 522h97v-522h-96v90q-59 -99 -165 -99
q-72 0 -114 47t-42 127v357h97v-339q0 -54 24 -81.5t66 -27.5q40 0 74.5 24t58.5 67v357z" />
    <glyph glyph-name="yacute" unicode="&#xfd;" horiz-adv-x="512" 
d="M163 598q62 94 95 165h128q-76 -95 -152 -165h-71zM121 -181q-39 0 -79 9l11 79q31 -10 64 -10q40 0 61.5 26t36.5 78l-182 521h98l130 -402l126 402h96l-196 -560q-50 -143 -166 -143z" />
    <glyph glyph-name="thorn" unicode="&#xfe;" horiz-adv-x="572" 
d="M293 69q125 2 125 197q0 100 -30 141t-85 41q-73 0 -122 -75v-269q45 -34 112 -35zM307 -9q-75 0 -126 32v-197h-97v890h97v-277q61 93 153 93q82 0 131 -67t49 -199q0 -135 -58 -205t-149 -70z" />
    <glyph glyph-name="ydieresis" unicode="&#xff;" horiz-adv-x="512" 
d="M342 612q-26 0 -42 14.5t-16 42.5q0 29 16 44.5t42 15.5q27 0 42.5 -16t15.5 -45q0 -27 -16 -41.5t-42 -14.5zM160 612q-27 0 -43 14.5t-16 42.5q0 29 16 44.5t43 15.5q26 0 41.5 -16t15.5 -45q0 -27 -15.5 -41.5t-41.5 -14.5zM121 -181q-39 0 -79 9l11 79q31 -10 64 -10
q40 0 61.5 26t36.5 78l-182 521h98l130 -402l126 402h96l-196 -560q-50 -143 -166 -143z" />
    <glyph glyph-name="Amacron" unicode="&#x100;" horiz-adv-x="637" 
d="M162 818v75h315v-75h-315zM417 274l-102 317l-101 -317h203zM506 0l-63 195h-255l-62 -195h-94l240 696h94l241 -696h-101z" />
    <glyph glyph-name="amacron" unicode="&#x101;" horiz-adv-x="541" 
d="M110 645v76h315v-76h-315zM233 64q65 0 117 55v109h-121q-40 0 -63.5 -19.5t-23.5 -59.5q0 -85 91 -85zM514 1q-51 -12 -91 7t-48 62q-69 -79 -169 -79q-69 0 -113 40t-44 111q0 72 46.5 112.5t125.5 40.5h128v59q0 49 -25 76t-73 27q-43 0 -69 -19t-45 -65l-74 39
q53 120 195 120q82 0 133.5 -45.5t51.5 -123.5v-238q0 -35 18.5 -47.5t52.5 -2.5v-74z" />
    <glyph glyph-name="Abreve" unicode="&#x102;" horiz-adv-x="637" 
d="M319 776q-85 0 -131.5 43t-47.5 133h80q1 -62 24 -87.5t75 -25.5t75.5 25.5t24.5 87.5h79q-1 -90 -47.5 -133t-131.5 -43zM417 274l-102 317l-101 -317h203zM506 0l-63 195h-255l-62 -195h-94l240 696h94l241 -696h-101z" />
    <glyph glyph-name="abreve" unicode="&#x103;" horiz-adv-x="541" 
d="M268 603q-84 0 -131 43t-48 132h80q1 -62 24 -87t75 -25t75.5 25t24.5 87h79q-1 -89 -47.5 -132t-131.5 -43zM233 64q65 0 117 55v109h-121q-40 0 -63.5 -19.5t-23.5 -59.5q0 -85 91 -85zM514 1q-51 -12 -91 7t-48 62q-69 -79 -169 -79q-69 0 -113 40t-44 111
q0 72 46.5 112.5t125.5 40.5h128v59q0 49 -25 76t-73 27q-43 0 -69 -19t-45 -65l-74 39q53 120 195 120q82 0 133.5 -45.5t51.5 -123.5v-238q0 -35 18.5 -47.5t52.5 -2.5v-74z" />
    <glyph glyph-name="Aogonek" unicode="&#x104;" horiz-adv-x="637" 
d="M417 274l-102 317l-101 -317h203zM638 -180q-45 -9 -85 -9q-56 0 -91.5 26.5t-35.5 71.5q0 70 72 117l-55 169h-255l-62 -195h-94l240 696h94l241 -696h-77q-34 -33 -34 -69q0 -52 72 -52q32 0 70 9v-68z" />
    <glyph glyph-name="aogonek" unicode="&#x105;" horiz-adv-x="541" 
d="M233 64q65 0 117 55v109h-121q-40 0 -63.5 -19.5t-23.5 -59.5q0 -85 91 -85zM559 -180q-45 -9 -85 -9q-57 0 -92 26.5t-35 71.5q0 64 59 109q-25 19 -31 52q-69 -79 -169 -79q-69 0 -113 40t-44 111q0 72 46.5 112.5t125.5 40.5h128v59q0 49 -25 76t-73 27q-43 0 -69 -19
t-45 -65l-74 39q53 120 195 120q82 0 133.5 -45.5t51.5 -123.5v-238q0 -35 18.5 -47.5t52.5 -2.5v-74q-35 -8 -64 -2q-33 -33 -33 -68q0 -52 72 -52q32 0 70 9v-68z" />
    <glyph glyph-name="Cacute" unicode="&#x106;" horiz-adv-x="633" 
d="M245 771q60 89 95 166h128q-69 -89 -152 -166h-71zM329 -9q-128 0 -198.5 90t-70.5 275q0 175 71 262t199 87q108 0 172.5 -58t75.5 -160l-93 -20q-9 80 -46.5 119t-109.5 39q-84 0 -128 -63t-44 -206q0 -154 43.5 -219.5t128.5 -65.5q75 0 112 39t44 115l93 -19
q-9 -98 -73.5 -156.5t-175.5 -58.5z" />
    <glyph glyph-name="cacute" unicode="&#x107;" horiz-adv-x="521" 
d="M198 598q58 84 96 165h128q-73 -92 -153 -165h-71zM277 -9q-104 0 -161.5 68.5t-57.5 202.5q0 132 58 201t161 69q75 0 126 -38t73 -111l-89 -27q-14 52 -41 74.5t-69 22.5q-122 0 -122 -191q0 -101 30 -147t92 -46q44 0 70 21t40 74l89 -28q-45 -145 -199 -145z" />
    <glyph glyph-name="Ccircumflex" unicode="&#x108;" horiz-adv-x="633" 
d="M187 777l-38 45q77 60 143 131h77q77 -80 144 -131l-37 -45q-83 45 -146 97q-58 -49 -143 -97zM329 -9q-128 0 -198.5 90t-70.5 275q0 175 71 262t199 87q108 0 172.5 -58t75.5 -160l-93 -20q-9 80 -46.5 119t-109.5 39q-84 0 -128 -63t-44 -206q0 -154 43.5 -219.5
t128.5 -65.5q75 0 112 39t44 115l93 -19q-9 -98 -73.5 -156.5t-175.5 -58.5z" />
    <glyph glyph-name="ccircumflex" unicode="&#x109;" horiz-adv-x="521" 
d="M125 604l-38 44q77 60 143 131h77q77 -80 144 -131l-37 -44q-75 40 -146 96q-64 -54 -143 -96zM277 -9q-104 0 -161.5 68.5t-57.5 202.5q0 132 58 201t161 69q75 0 126 -38t73 -111l-89 -27q-14 52 -41 74.5t-69 22.5q-122 0 -122 -191q0 -101 30 -147t92 -46q44 0 70 21
t40 74l89 -28q-45 -145 -199 -145z" />
    <glyph glyph-name="Cdotaccent" unicode="&#x10a;" horiz-adv-x="633" 
d="M331 786q-29 0 -46 14.5t-17 41.5q0 29 17 44.5t46 15.5q63 0 63 -61q0 -26 -17 -40.5t-46 -14.5zM329 -9q-128 0 -198.5 90t-70.5 275q0 175 71 262t199 87q108 0 172.5 -58t75.5 -160l-93 -20q-9 80 -46.5 119t-109.5 39q-84 0 -128 -63t-44 -206q0 -154 43.5 -219.5
t128.5 -65.5q75 0 112 39t44 115l93 -19q-9 -98 -73.5 -156.5t-175.5 -58.5z" />
    <glyph glyph-name="cdotaccent" unicode="&#x10b;" horiz-adv-x="521" 
d="M262 612q-29 0 -46 14.5t-17 42.5q0 29 17.5 44.5t45.5 15.5q29 0 46 -16t17 -45q0 -27 -17 -41.5t-46 -14.5zM277 -9q-104 0 -161.5 68.5t-57.5 202.5q0 132 58 201t161 69q75 0 126 -38t73 -111l-89 -27q-14 52 -41 74.5t-69 22.5q-122 0 -122 -191q0 -101 30 -147
t92 -46q44 0 70 21t40 74l89 -28q-45 -145 -199 -145z" />
    <glyph glyph-name="Ccaron" unicode="&#x10c;" horiz-adv-x="633" 
d="M294 777q-69 75 -145 132l38 44q71 -40 145 -96q68 55 144 97l37 -45q-75 -56 -142 -132h-77zM329 -9q-128 0 -198.5 90t-70.5 275q0 175 71 262t199 87q108 0 172.5 -58t75.5 -160l-93 -20q-9 80 -46.5 119t-109.5 39q-84 0 -128 -63t-44 -206q0 -154 43.5 -219.5
t128.5 -65.5q75 0 112 39t44 115l93 -19q-9 -98 -73.5 -156.5t-175.5 -58.5z" />
    <glyph glyph-name="ccaron" unicode="&#x10d;" horiz-adv-x="521" 
d="M225 604q-70 75 -145 131l38 44q65 -36 145 -96q62 51 144 97l37 -45q-74 -55 -142 -131h-77zM277 -9q-104 0 -161.5 68.5t-57.5 202.5q0 132 58 201t161 69q75 0 126 -38t73 -111l-89 -27q-14 52 -41 74.5t-69 22.5q-122 0 -122 -191q0 -101 30 -147t92 -46q44 0 70 21
t40 74l89 -28q-45 -145 -199 -145z" />
    <glyph glyph-name="Dcaron" unicode="&#x10e;" horiz-adv-x="666" 
d="M296 777q-69 75 -145 132l38 44q71 -40 145 -96q68 55 144 97l37 -45q-75 -56 -142 -132h-77zM86 0v696h237q130 0 207 -85.5t77 -258.5q0 -179 -77.5 -265.5t-207.5 -86.5h-236zM183 80h131q95 0 145 62.5t50 209.5q0 265 -195 265h-131v-537z" />
    <glyph glyph-name="dcaron" unicode="&#x10f;" horiz-adv-x="574" 
d="M540 551q32 112 40 217h93q-18 -124 -77 -217h-56zM280 453q-125 0 -125 -197q0 -182 114 -182q73 0 123 76v269q-49 34 -112 34zM265 532q68 0 127 -33v217h96v-716h-94v83q-56 -92 -156 -92q-81 0 -130.5 67t-49.5 198q0 135 58 205.5t149 70.5z" />
    <glyph glyph-name="Dcroat" unicode="&#x110;" horiz-adv-x="666" 
d="M322 0h-236v341h-80v76h80v279h237q130 0 207 -85.5t77 -258.5q0 -179 -77.5 -265.5t-207.5 -86.5zM183 80h131q95 0 145 62.5t50 209.5q0 265 -195 265h-131v-200h155v-76h-155v-261z" />
    <glyph glyph-name="dcroat" unicode="&#x111;" horiz-adv-x="572" 
d="M279 428q-125 0 -125 -184q0 -94 30.5 -132t84.5 -38q72 0 122 75v244q-47 35 -112 35zM394 83q-57 -92 -156 -92q-81 0 -130.5 64t-49.5 189q0 128 58 195t149 67q71 0 126 -31v79h-145v65h145v97h97v-97h76v-65h-76v-554h-94v83z" />
    <glyph glyph-name="Emacron" unicode="&#x112;" horiz-adv-x="576" 
d="M138 818v75h315v-75h-315zM86 0v696h434v-79h-337v-204h298v-80h-298v-254h337v-79h-434z" />
    <glyph glyph-name="emacron" unicode="&#x113;" horiz-adv-x="547" 
d="M118 644v76h315v-76h-315zM280 457q-57 0 -87.5 -35.5t-37.5 -112.5h239q-1 76 -31.5 112t-82.5 36zM481 74q-30 -41 -81 -62t-107 -21q-109 0 -172 70.5t-63 201.5q0 132 60 200.5t164 68.5q91 0 149 -63.5t58 -176.5v-55h-335q9 -170 141 -170q81 0 129 63z" />
    <glyph glyph-name="Ebreve" unicode="&#x114;" horiz-adv-x="576" 
d="M296 776q-85 0 -131.5 43t-47.5 133h79q1 -62 24.5 -87.5t75.5 -25.5t75 25.5t24 87.5h80q-1 -89 -48 -132.5t-131 -43.5zM86 0v696h434v-79h-337v-204h298v-80h-298v-254h337v-79h-434z" />
    <glyph glyph-name="ebreve" unicode="&#x115;" horiz-adv-x="547" 
d="M275 603q-84 0 -130.5 43t-47.5 132h79q1 -62 24 -87t75 -25t75.5 25t24.5 87h79q-1 -89 -47.5 -132t-131.5 -43zM280 457q-57 0 -87.5 -35.5t-37.5 -112.5h239q-1 76 -31.5 112t-82.5 36zM481 74q-30 -41 -81 -62t-107 -21q-109 0 -172 70.5t-63 201.5q0 132 60 200.5
t164 68.5q91 0 149 -63.5t58 -176.5v-55h-335q9 -170 141 -170q81 0 129 63z" />
    <glyph glyph-name="Edotaccent" unicode="&#x116;" horiz-adv-x="576" 
d="M296 786q-29 0 -46 14.5t-17 41.5q0 29 17 44.5t46 15.5t46 -15.5t17 -45.5q0 -26 -17.5 -40.5t-45.5 -14.5zM86 0v696h434v-79h-337v-204h298v-80h-298v-254h337v-79h-434z" />
    <glyph glyph-name="edotaccent" unicode="&#x117;" horiz-adv-x="547" 
d="M275 612q-29 0 -46 14.5t-17 42.5q0 29 17.5 44.5t45.5 15.5q29 0 46 -16t17 -45q0 -27 -17 -41.5t-46 -14.5zM280 457q-57 0 -87.5 -35.5t-37.5 -112.5h239q-1 76 -31.5 112t-82.5 36zM481 74q-30 -41 -81 -62t-107 -21q-109 0 -172 70.5t-63 201.5q0 132 60 200.5
t164 68.5q91 0 149 -63.5t58 -176.5v-55h-335q9 -170 141 -170q81 0 129 63z" />
    <glyph glyph-name="Eogonek" unicode="&#x118;" horiz-adv-x="576" 
d="M510 -180q-45 -9 -85 -9q-56 0 -91.5 26.5t-35.5 71.5q0 49 40 91h-252v696h434v-79h-337v-204h298v-80h-298v-254h337v-79h-118q-34 -33 -34 -69q0 -52 72 -52q32 0 70 9v-68z" />
    <glyph glyph-name="eogonek" unicode="&#x119;" horiz-adv-x="547" 
d="M280 457q-57 0 -87.5 -35.5t-37.5 -112.5h239q-1 76 -31.5 112t-82.5 36zM484 -180q-47 -9 -86 -9q-56 0 -91.5 26.5t-35.5 71.5q0 43 32 82h-10q-109 0 -172 70.5t-63 201.5q0 132 60 200.5t164 68.5q91 0 149 -63.5t58 -176.5v-55h-335q9 -170 141 -170q81 0 129 63
l57 -56q-36 -47 -99 -69q-41 -37 -41 -74q0 -52 73 -52q30 0 70 9v-68z" />
    <glyph glyph-name="Ecaron" unicode="&#x11a;" horiz-adv-x="576" 
d="M258 777q-71 77 -144 132l37 44q69 -39 146 -96q66 54 143 97l38 -45q-78 -58 -143 -132h-77zM86 0v696h434v-79h-337v-204h298v-80h-298v-254h337v-79h-434z" />
    <glyph glyph-name="ecaron" unicode="&#x11b;" horiz-adv-x="547" 
d="M235 604q-70 75 -145 131l38 44q71 -40 145 -96q62 51 144 97l37 -45q-74 -55 -142 -131h-77zM280 457q-57 0 -87.5 -35.5t-37.5 -112.5h239q-1 76 -31.5 112t-82.5 36zM481 74q-30 -41 -81 -62t-107 -21q-109 0 -172 70.5t-63 201.5q0 132 60 200.5t164 68.5
q91 0 149 -63.5t58 -176.5v-55h-335q9 -170 141 -170q81 0 129 63z" />
    <glyph glyph-name="Gcircumflex" unicode="&#x11c;" horiz-adv-x="645" 
d="M184 777l-38 45q77 60 143 131h77q77 -80 144 -131l-37 -45q-83 45 -146 97q-58 -49 -143 -97zM588 292q0 -153 -69 -227t-189 -74q-127 0 -198.5 90.5t-71.5 274.5q0 175 71.5 262t198.5 87q104 0 166.5 -50t76.5 -138l-94 -20q-12 62 -47 95t-102 33q-84 0 -128.5 -63
t-44.5 -206q0 -154 44 -219.5t128 -65.5q80 0 120.5 46t42.5 160h-167v81h263v-66z" />
    <glyph glyph-name="gcircumflex" unicode="&#x11d;" horiz-adv-x="579" 
d="M151 604l-37 44q73 57 142 131h77q74 -78 145 -131l-38 -44q-77 41 -145 96q-67 -55 -144 -96zM277 268q45 0 72.5 23t27.5 72q0 48 -28 71t-72 23t-71.5 -23t-27.5 -71t27.5 -71.5t71.5 -23.5zM538 -14q0 -79 -72 -126.5t-194 -47.5q-111 0 -165 34t-54 88q0 70 83 110
q-64 28 -64 91q0 36 20.5 66t55.5 44q-58 47 -58 120q0 70 53 115.5t133 45.5q26 0 46 -4h202v-70q-61 5 -98 15q38 -43 38 -102q0 -71 -53 -117t-136 -46q-44 0 -82 16q-43 -22 -43 -58q0 -49 75 -49h158q72 0 113.5 -32t41.5 -93zM286 -118q77 0 120.5 24.5t43.5 66.5
q0 55 -72 55h-158q-11 0 -29 2q-50 -34 -50 -76q0 -72 145 -72z" />
    <glyph glyph-name="Gbreve" unicode="&#x11e;" horiz-adv-x="645" 
d="M328 776q-84 0 -131 43.5t-48 132.5h80q1 -62 24 -87.5t75 -25.5t75.5 25.5t24.5 87.5h79q-1 -90 -47.5 -133t-131.5 -43zM588 292q0 -153 -69 -227t-189 -74q-127 0 -198.5 90.5t-71.5 274.5q0 175 71.5 262t198.5 87q104 0 166.5 -50t76.5 -138l-94 -20q-12 62 -47 95
t-102 33q-84 0 -128.5 -63t-44.5 -206q0 -154 44 -219.5t128 -65.5q80 0 120.5 46t42.5 160h-167v81h263v-66z" />
    <glyph glyph-name="gbreve" unicode="&#x11f;" horiz-adv-x="579" 
d="M296 603q-85 0 -131.5 43t-47.5 132h79q1 -62 24.5 -87t75.5 -25t75 25t24 87h80q-1 -89 -48 -132t-131 -43zM277 268q45 0 72.5 23t27.5 72q0 48 -28 71t-72 23t-71.5 -23t-27.5 -71t27.5 -71.5t71.5 -23.5zM538 -14q0 -79 -72 -126.5t-194 -47.5q-111 0 -165 34t-54 88
q0 70 83 110q-64 28 -64 91q0 36 20.5 66t55.5 44q-58 47 -58 120q0 70 53 115.5t133 45.5q26 0 46 -4h202v-70q-61 5 -98 15q38 -43 38 -102q0 -71 -53 -117t-136 -46q-44 0 -82 16q-43 -22 -43 -58q0 -49 75 -49h158q72 0 113.5 -32t41.5 -93zM286 -118q77 0 120.5 24.5
t43.5 66.5q0 55 -72 55h-158q-11 0 -29 2q-50 -34 -50 -76q0 -72 145 -72z" />
    <glyph glyph-name="Gdotaccent" unicode="&#x120;" horiz-adv-x="645" 
d="M328 786q-29 0 -46 14.5t-17 41.5q0 29 17 44.5t46 15.5q63 0 63 -61q0 -26 -17 -40.5t-46 -14.5zM588 292q0 -153 -69 -227t-189 -74q-127 0 -198.5 90.5t-71.5 274.5q0 175 71.5 262t198.5 87q104 0 166.5 -50t76.5 -138l-94 -20q-12 62 -47 95t-102 33
q-84 0 -128.5 -63t-44.5 -206q0 -154 44 -219.5t128 -65.5q80 0 120.5 46t42.5 160h-167v81h263v-66z" />
    <glyph glyph-name="gdotaccent" unicode="&#x121;" horiz-adv-x="579" 
d="M296 612q-29 0 -46 14.5t-17 42.5q0 29 17 44.5t46 15.5t46 -16t17 -45q0 -27 -17.5 -41.5t-45.5 -14.5zM277 268q45 0 72.5 23t27.5 72q0 48 -28 71t-72 23t-71.5 -23t-27.5 -71t27.5 -71.5t71.5 -23.5zM538 -14q0 -79 -72 -126.5t-194 -47.5q-111 0 -165 34t-54 88
q0 70 83 110q-64 28 -64 91q0 36 20.5 66t55.5 44q-58 47 -58 120q0 70 53 115.5t133 45.5q26 0 46 -4h202v-70q-61 5 -98 15q38 -43 38 -102q0 -71 -53 -117t-136 -46q-44 0 -82 16q-43 -22 -43 -58q0 -49 75 -49h158q72 0 113.5 -32t41.5 -93zM286 -118q77 0 120.5 24.5
t43.5 66.5q0 55 -72 55h-158q-11 0 -29 2q-50 -34 -50 -76q0 -72 145 -72z" />
    <glyph glyph-name="Gcommaaccent" unicode="&#x122;" horiz-adv-x="645" 
d="M588 292q0 -153 -69 -227t-189 -74q-127 0 -198.5 90.5t-71.5 274.5q0 175 71.5 262t198.5 87q104 0 166.5 -50t76.5 -138l-94 -20q-12 62 -47 95t-102 33q-84 0 -128.5 -63t-44.5 -206q0 -154 44 -219.5t128 -65.5q80 0 120.5 46t42.5 160h-167v81h263v-66zM228 -251
q38 87 63 174h125q-48 -85 -121 -174h-67z" />
    <glyph glyph-name="gcommaaccent" unicode="&#x123;" horiz-adv-x="579" 
d="M237 600q51 91 121 173h67q-38 -83 -64 -173h-124zM277 268q45 0 72.5 23t27.5 72q0 48 -28 71t-72 23t-71.5 -23t-27.5 -71t27.5 -71.5t71.5 -23.5zM538 -14q0 -79 -72 -126.5t-194 -47.5q-111 0 -165 34t-54 88q0 70 83 110q-64 28 -64 91q0 36 20.5 66t55.5 44
q-58 47 -58 120q0 70 53 115.5t133 45.5q26 0 46 -4h202v-70q-61 5 -98 15q38 -43 38 -102q0 -71 -53 -117t-136 -46q-44 0 -82 16q-43 -22 -43 -58q0 -49 75 -49h158q72 0 113.5 -32t41.5 -93zM286 -118q77 0 120.5 24.5t43.5 66.5q0 55 -72 55h-158q-11 0 -29 2
q-50 -34 -50 -76q0 -72 145 -72z" />
    <glyph glyph-name="Hcircumflex" unicode="&#x124;" horiz-adv-x="676" 
d="M194 777l-37 45q77 62 142 131h77q77 -80 144 -131l-37 -45q-83 45 -146 97q-58 -49 -143 -97zM86 0v696h97v-280h310v280h97v-696h-97v336h-310v-336h-97z" />
    <glyph glyph-name="hcircumflex" unicode="&#x125;" 
d="M-14 777l-38 45q79 62 142 131h78q71 -76 144 -131l-38 -45q-83 46 -145 97q-62 -52 -143 -97zM181 0h-97v716h97v-284q61 100 165 100q71 0 113 -47.5t42 -126.5v-358h-97v339q0 54 -24 81.5t-66 27.5q-82 0 -133 -90v-358z" />
    <glyph glyph-name="Hbar" unicode="&#x126;" horiz-adv-x="676" 
d="M183 358h310v144h-310v-144zM183 278v-278h-97v502h-80v74h80v120h97v-120h310v120h97v-120h80v-74h-80v-502h-97v278h-310z" />
    <glyph glyph-name="hbar" unicode="&#x127;" 
d="M181 332v-332h-97v554h-72v65h72v97h97v-97h149v-65h-149v-147q60 99 165 99q71 0 113 -47t42 -127v-332h-97v314q0 53 -24 81t-66 28q-40 0 -74.5 -24t-58.5 -67z" />
    <glyph glyph-name="Itilde" unicode="&#x128;" horiz-adv-x="467" 
d="M302 782q-44 0 -82 51q-4 5 -11 14.5t-11 14t-10 10.5t-11 8.5t-11 2.5q-37 0 -36 -82v-10h-73v13q0 67 29.5 109t81.5 42q48 0 85 -51q2 -3 8.5 -11.5t9 -12t8 -9.5t9 -9t8 -5t9.5 -2q35 0 35 81v10h74v-13q0 -67 -30 -109t-82 -42zM49 0v79h137v538h-137v79h370v-79
h-136v-538h136v-79h-370z" />
    <glyph glyph-name="itilde" unicode="&#x129;" horiz-adv-x="274" 
d="M205 608q-45 0 -82 52l-10.5 14t-11 14t-10 10t-11.5 8.5t-11 2.5q-36 0 -35 -82v-10h-74v13q0 67 29.5 109.5t81.5 42.5q21 0 38.5 -8.5t26 -17t21.5 -25.5q3 -4 8.5 -12.5t8.5 -12t8 -9.5t8.5 -9t8 -5t9.5 -2q36 0 36 81v10h73v-13q0 -67 -30 -109t-82 -42zM85 0v522
h97v-522h-97z" />
    <glyph glyph-name="Imacron" unicode="&#x12a;" horiz-adv-x="467" 
d="M78 818v75h315v-75h-315zM49 0v79h137v538h-137v79h370v-79h-136v-538h136v-79h-370z" />
    <glyph glyph-name="imacron" unicode="&#x12b;" horiz-adv-x="274" 
d="M-19 644v76h315v-76h-315zM85 0v522h97v-522h-97z" />
    <glyph glyph-name="Ibreve" unicode="&#x12c;" horiz-adv-x="467" 
d="M232 776q-85 0 -131.5 43t-47.5 133h79q1 -62 24.5 -87.5t75.5 -25.5t75 25.5t24 87.5h80q-1 -89 -48 -132.5t-131 -43.5zM49 0v79h137v538h-137v79h370v-79h-136v-538h136v-79h-370z" />
    <glyph glyph-name="ibreve" unicode="&#x12d;" horiz-adv-x="274" 
d="M137 603q-85 0 -131.5 43t-47.5 132h80q1 -62 24 -87t75 -25t75.5 25t24.5 87h79q-1 -89 -47.5 -132t-131.5 -43zM85 0v522h97v-522h-97z" />
    <glyph glyph-name="Iogonek" unicode="&#x12e;" horiz-adv-x="467" 
d="M382 -180q-45 -9 -85 -9q-56 0 -91.5 26.5t-35.5 71.5q0 49 40 91h-161v79h137v538h-137v79h370v-79h-136v-538h136v-79h-145q-34 -33 -34 -69q0 -52 72 -52q32 0 70 9v-68z" />
    <glyph glyph-name="iogonek" unicode="&#x12f;" horiz-adv-x="274" 
d="M133 612q-29 0 -46 14.5t-17 42.5t17 43.5t46 15.5t46.5 -15.5t17.5 -44.5q0 -27 -17.5 -41.5t-46.5 -14.5zM251 -180q-45 -9 -85 -9q-57 0 -92 26.5t-35 71.5q0 54 46 98v515h97v-522h-39q-34 -33 -34 -69q0 -52 72 -52q32 0 70 9v-68z" />
    <glyph glyph-name="Idotaccent" unicode="&#x130;" horiz-adv-x="467" 
d="M235 786q-29 0 -46 14.5t-17 41.5q0 29 17 44.5t46 15.5t46 -15.5t17 -45.5q0 -26 -17.5 -40.5t-45.5 -14.5zM49 0v79h137v538h-137v79h370v-79h-136v-538h136v-79h-370z" />
    <glyph glyph-name="dotlessi" unicode="&#x131;" horiz-adv-x="267" 
d="M85 0v522h97v-522h-97z" />
    <glyph glyph-name="IJ" unicode="&#x132;" horiz-adv-x="986" 
d="M49 0v79h137v538h-137v79h370v-79h-136v-538h136v-79h-370zM684 -9q-99 0 -158.5 57.5t-66.5 166.5l94 15q7 -81 37.5 -119t93.5 -38q65 0 96.5 41t31.5 114v468h97v-469q0 -107 -59 -171.5t-166 -64.5z" />
    <glyph glyph-name="ij" unicode="&#x133;" horiz-adv-x="537" 
d="M134 614q-29 0 -46 14.5t-17 42.5q0 29 17.5 44.5t45.5 15.5q29 0 46 -16t17 -45q0 -27 -17 -41.5t-46 -14.5zM399 612q-29 0 -46 14.5t-17 42.5q0 29 17.5 44.5t45.5 15.5q29 0 46 -16t17 -45q0 -27 -17 -41.5t-46 -14.5zM85 0v522h97v-522h-97zM292 -181q-38 0 -97 19
l17 77q44 -19 72 -19q69 0 69 83v543h96v-545q0 -78 -43.5 -118t-113.5 -40z" />
    <glyph glyph-name="Jcircumflex" unicode="&#x134;" horiz-adv-x="555" 
d="M271 777l-37 45q73 57 142 131h77q74 -78 145 -131l-38 -45q-84 46 -145 97q-60 -50 -144 -97zM252 -9q-99 0 -158.5 57.5t-66.5 166.5l94 15q7 -81 37.5 -119t93.5 -38q65 0 96.5 41t31.5 114v468h97v-469q0 -107 -59 -171.5t-166 -64.5z" />
    <glyph glyph-name="jcircumflex" unicode="&#x135;" horiz-adv-x="283" 
d="M-1 604l-38 44q77 60 143 131h77q77 -80 144 -131l-37 -44q-75 40 -146 96q-64 -54 -143 -96zM39 -181q-38 0 -97 19l17 77q44 -19 71 -19q70 0 70 83v543h96v-545q0 -78 -43.5 -118t-113.5 -40z" />
    <glyph glyph-name="Kcommaaccent" unicode="&#x136;" horiz-adv-x="614" 
d="M470 0l-189 347l-99 -120v-227h-96v696h96v-349l294 349h105l-233 -278l231 -418h-109zM190 -251q42 97 63 174h125q-47 -86 -121 -174h-67z" />
    <glyph glyph-name="kcommaaccent" unicode="&#x137;" horiz-adv-x="529" 
d="M395 0l-136 240l-80 -101v-139h-95v716h95v-466l211 272h102l-168 -211l176 -311h-105zM172 -251q38 87 63 174h125q-52 -91 -121 -174h-67z" />
    <glyph glyph-name="kgreenlandic" unicode="&#x138;" horiz-adv-x="529" 
d="M395 0l-136 240l-80 -101v-139h-95v522h95v-272l211 272h102l-168 -211l176 -311h-105z" />
    <glyph glyph-name="Lacute" unicode="&#x139;" horiz-adv-x="508" 
d="M63 771q59 87 96 166h128q-72 -90 -153 -166h-71zM86 0v696h97v-616h293v-80h-390z" />
    <glyph glyph-name="lacute" unicode="&#x13a;" horiz-adv-x="266" 
d="M82 771q59 87 96 166h128q-72 -90 -153 -166h-71zM85 0v716h97v-716h-97z" />
    <glyph glyph-name="Lcommaaccent" unicode="&#x13b;" horiz-adv-x="508" 
d="M86 0v696h97v-616h293v-80h-390zM176 -251q42 97 63 174h125q-52 -91 -121 -174h-67z" />
    <glyph glyph-name="lcommaaccent" unicode="&#x13c;" horiz-adv-x="266" 
d="M85 0v716h97v-716h-97zM18 -251q39 87 63 174h125q-47 -86 -121 -174h-67z" />
    <glyph glyph-name="Lcaron" unicode="&#x13d;" horiz-adv-x="508" 
d="M334 479q33 110 41 217h92q-19 -127 -77 -217h-56zM86 0v696h97v-616h293v-80h-390z" />
    <glyph glyph-name="lcaron" unicode="&#x13e;" horiz-adv-x="290" 
d="M250 551q34 116 41 217h92q-18 -124 -77 -217h-56zM85 0v716h97v-716h-97z" />
    <glyph glyph-name="Ldot" unicode="&#x13f;" horiz-adv-x="508" 
d="M86 0v696h97v-616h293v-80h-390zM386 350q-29 0 -46 14.5t-17 42.5t17 43.5t46 15.5q63 0 63 -61q0 -26 -17 -40.5t-46 -14.5z" />
    <glyph glyph-name="ldot" unicode="&#x140;" horiz-adv-x="316" 
d="M85 0v716h97v-716h-97zM291 270q-29 0 -46 15t-17 42q0 29 17 44.5t46 15.5t46 -15.5t17 -45.5q0 -26 -17.5 -41t-45.5 -15z" />
    <glyph glyph-name="Lslash" unicode="&#x141;" horiz-adv-x="508" 
d="M476 0h-390v308l-72 -25v75l72 25v313h97v-278l154 55v-76l-154 -55v-262h293v-80z" />
    <glyph glyph-name="lslash" unicode="&#x142;" horiz-adv-x="340" 
d="M119 0v296l-91 -30v75l91 30v345h104v-314l92 31v-75l-92 -31v-327h-104z" />
    <glyph glyph-name="Nacute" unicode="&#x143;" horiz-adv-x="676" 
d="M271 771q59 87 96 166h128q-72 -90 -153 -166h-71zM481 0l-308 558v-558h-87v696h109l308 -554v554h87v-696h-109z" />
    <glyph glyph-name="nacute" unicode="&#x144;" 
d="M233 598q62 94 95 165h128q-70 -90 -152 -165h-71zM181 0h-97v522h96v-90q60 100 165 100q72 0 114 -47t42 -127v-358h-97v339q0 54 -24 81.5t-66 27.5q-81 0 -133 -90v-358z" />
    <glyph glyph-name="Ncommaaccent" unicode="&#x145;" horiz-adv-x="676" 
d="M481 0l-308 558v-558h-87v696h109l308 -554v554h87v-696h-109zM214 -251q39 87 63 174h125q-46 -83 -120 -174h-68z" />
    <glyph glyph-name="ncommaaccent" unicode="&#x146;" 
d="M181 0h-97v522h96v-90q60 100 165 100q72 0 114 -47t42 -127v-358h-97v339q0 54 -24 81.5t-66 27.5q-81 0 -133 -90v-358zM170 -251q38 87 63 174h125q-52 -91 -121 -174h-67z" />
    <glyph glyph-name="Ncaron" unicode="&#x147;" horiz-adv-x="676" 
d="M316 777q-71 77 -144 132l37 44q69 -39 146 -96q66 54 143 97l38 -45q-78 -58 -143 -132h-77zM481 0l-308 558v-558h-87v696h109l308 -554v554h87v-696h-109z" />
    <glyph glyph-name="ncaron" unicode="&#x148;" 
d="M257 604q-73 77 -144 131l37 44q69 -39 146 -96q60 51 143 97l38 -45q-77 -57 -143 -131h-77zM181 0h-97v522h96v-90q60 100 165 100q72 0 114 -47t42 -127v-358h-97v339q0 54 -24 81.5t-66 27.5q-81 0 -133 -90v-358z" />
    <glyph glyph-name="napostrophe" unicode="&#x149;" 
d="M-9 598q63 94 95 165h128q-70 -90 -152 -165h-71zM181 0h-97v522h96v-90q60 100 165 100q72 0 114 -47t42 -127v-358h-97v339q0 54 -24 81.5t-66 27.5q-81 0 -133 -90v-358z" />
    <glyph glyph-name="Eng" unicode="&#x14a;" horiz-adv-x="676" 
d="M432 -181q-38 0 -97 19l17 77q44 -19 72 -19q69 0 69 83v514q0 62 -37 95.5t-101 33.5q-107 0 -172 -114v-508h-97v696h96v-114q73 123 204 123q92 0 147.5 -52.5t55.5 -140.5v-535q0 -78 -43.5 -118t-113.5 -40z" />
    <glyph glyph-name="eng" unicode="&#x14b;" 
d="M343 -181q-39 0 -96 19l16 77q46 -19 72 -19q69 0 69 83v360q0 54 -24 81.5t-66 27.5q-82 0 -133 -90v-358h-97v522h96v-90q61 100 166 100q71 0 113 -47.5t42 -126.5v-381q0 -78 -44 -118t-114 -40z" />
    <glyph glyph-name="Omacron" unicode="&#x14c;" horiz-adv-x="664" 
d="M174 818v75h315v-75h-315zM331 -9q-128 0 -199.5 89.5t-71.5 275.5q0 176 72.5 262.5t199.5 86.5q128 0 200.5 -86.5t72.5 -262.5q0 -186 -72.5 -275.5t-201.5 -89.5zM331 71q88 0 132 64.5t44 220.5q0 144 -44.5 206.5t-131.5 62.5q-86 0 -130 -62.5t-44 -206.5
q0 -156 44 -220.5t130 -64.5z" />
    <glyph glyph-name="omacron" unicode="&#x14d;" horiz-adv-x="553" 
d="M120 644v76h315v-76h-315zM276 -9q-101 0 -159.5 68t-58.5 201t59 202.5t160 69.5q100 0 159 -69.5t59 -202.5t-58.5 -201t-160.5 -68zM276 69q62 0 91.5 45t29.5 145t-30 147t-91 47q-121 0 -121 -193q0 -100 30 -145.5t91 -45.5z" />
    <glyph glyph-name="Obreve" unicode="&#x14e;" horiz-adv-x="664" 
d="M331 776q-84 0 -131 43.5t-48 132.5h80q1 -62 24 -87.5t75 -25.5t75.5 25.5t24.5 87.5h79q-1 -90 -47.5 -133t-131.5 -43zM331 -9q-128 0 -199.5 89.5t-71.5 275.5q0 176 72.5 262.5t199.5 86.5q128 0 200.5 -86.5t72.5 -262.5q0 -186 -72.5 -275.5t-201.5 -89.5zM331 71
q88 0 132 64.5t44 220.5q0 144 -44.5 206.5t-131.5 62.5q-86 0 -130 -62.5t-44 -206.5q0 -156 44 -220.5t130 -64.5z" />
    <glyph glyph-name="obreve" unicode="&#x14f;" horiz-adv-x="553" 
d="M277 603q-84 0 -130.5 43t-47.5 132h79q1 -62 24 -87t75 -25q53 0 76 25t24 87h79q-1 -89 -47.5 -132t-131.5 -43zM276 -9q-101 0 -159.5 68t-58.5 201t59 202.5t160 69.5q100 0 159 -69.5t59 -202.5t-58.5 -201t-160.5 -68zM276 69q62 0 91.5 45t29.5 145t-30 147
t-91 47q-121 0 -121 -193q0 -100 30 -145.5t91 -45.5z" />
    <glyph glyph-name="Ohungarumlaut" unicode="&#x150;" horiz-adv-x="664" 
d="M213 771q41 100 57 166h102q-34 -68 -103 -166h-56zM381 771q44 110 58 166h102q-34 -68 -103 -166h-57zM331 -9q-128 0 -199.5 89.5t-71.5 275.5q0 176 72.5 262.5t199.5 86.5q128 0 200.5 -86.5t72.5 -262.5q0 -186 -72.5 -275.5t-201.5 -89.5zM331 71q88 0 132 64.5
t44 220.5q0 144 -44.5 206.5t-131.5 62.5q-86 0 -130 -62.5t-44 -206.5q0 -156 44 -220.5t130 -64.5z" />
    <glyph glyph-name="ohungarumlaut" unicode="&#x151;" horiz-adv-x="553" 
d="M162 598q41 103 56 165h102q-32 -65 -103 -165h-55zM329 598q41 95 58 165h102q-35 -71 -103 -165h-57zM276 -9q-101 0 -159.5 68t-58.5 201t59 202.5t160 69.5q100 0 159 -69.5t59 -202.5t-58.5 -201t-160.5 -68zM276 69q62 0 91.5 45t29.5 145t-30 147t-91 47
q-121 0 -121 -193q0 -100 30 -145.5t91 -45.5z" />
    <glyph glyph-name="OE" unicode="&#x152;" horiz-adv-x="974" 
d="M350 0q-131 0 -208.5 86.5t-77.5 265.5q0 173 77.5 258.5t207.5 85.5h568v-79h-335v-204h295v-80h-295v-254h335v-79h-567zM357 80h129v537h-129q-195 0 -195 -265q0 -147 50 -209.5t145 -62.5z" />
    <glyph glyph-name="oe" unicode="&#x153;" horiz-adv-x="889" 
d="M623 457q-115 0 -126 -148h240q-3 148 -114 148zM276 69q62 0 91.5 45t29.5 145t-30 147t-91 47q-121 0 -121 -193q0 -100 30 -145.5t91 -45.5zM823 74q-30 -40 -80.5 -61.5t-107.5 -21.5q-127 0 -185 100q-53 -100 -174 -100q-101 0 -159.5 68t-58.5 201t59 202.5
t160 69.5q115 0 171 -99q54 99 176 99q92 0 149.5 -63.5t57.5 -176.5v-55h-335q9 -170 141 -170q81 0 129 63z" />
    <glyph glyph-name="Racute" unicode="&#x154;" horiz-adv-x="631" 
d="M236 771q64 97 95 166h128q-69 -89 -152 -166h-71zM183 343h160q64 0 97.5 36t33.5 101t-33.5 101t-97.5 36h-160v-274zM183 0h-97v696h269q101 0 158.5 -59t57.5 -157q0 -76 -42 -133t-116 -75l170 -272h-110l-166 265h-124v-265z" />
    <glyph glyph-name="racute" unicode="&#x155;" horiz-adv-x="395" 
d="M172 598q63 94 95 165h128q-70 -90 -152 -165h-71zM181 0h-97v522h96v-89q56 98 149 98q33 0 57 -11l-16 -85q-25 9 -54 9q-85 0 -135 -77v-367z" />
    <glyph glyph-name="Rcommaaccent" unicode="&#x156;" horiz-adv-x="631" 
d="M183 343h160q64 0 97.5 36t33.5 101t-33.5 101t-97.5 36h-160v-274zM183 0h-97v696h269q101 0 158.5 -59t57.5 -157q0 -76 -42 -133t-116 -75l170 -272h-110l-166 265h-124v-265zM205 -251q39 87 63 174h125q-47 -86 -121 -174h-67z" />
    <glyph glyph-name="rcommaaccent" unicode="&#x157;" horiz-adv-x="395" 
d="M181 0h-97v522h96v-89q56 98 149 98q33 0 57 -11l-16 -85q-25 9 -54 9q-85 0 -135 -77v-367zM18 -251q39 87 63 174h125q-47 -86 -121 -174h-67z" />
    <glyph glyph-name="Rcaron" unicode="&#x158;" horiz-adv-x="631" 
d="M282 777q-69 75 -145 132l38 44q65 -36 145 -96q67 53 143 97l38 -45q-79 -59 -142 -132h-77zM183 343h160q64 0 97.5 36t33.5 101t-33.5 101t-97.5 36h-160v-274zM183 0h-97v696h269q101 0 158.5 -59t57.5 -157q0 -76 -42 -133t-116 -75l170 -272h-110l-166 265h-124
v-265z" />
    <glyph glyph-name="rcaron" unicode="&#x159;" horiz-adv-x="395" 
d="M194 604q-73 77 -144 131l37 44q69 -39 146 -96q60 51 143 97l38 -45q-77 -57 -143 -131h-77zM181 0h-97v522h96v-89q56 98 149 98q33 0 57 -11l-16 -85q-25 9 -54 9q-85 0 -135 -77v-367z" />
    <glyph glyph-name="Sacute" unicode="&#x15a;" horiz-adv-x="616" 
d="M240 771q64 97 95 166h128q-69 -89 -152 -166h-71zM305 -6q-170 0 -254 122l53 62q72 -105 206 -105q70 0 110 28t40 81q0 52 -36 79t-139 50q-112 24 -161.5 69t-49.5 126q0 87 61.5 141t163.5 54q156 0 235 -113l-52 -60q-75 93 -181 93q-61 0 -96 -25.5t-35 -77.5
q0 -49 31.5 -75t129.5 -48q120 -25 172 -73t52 -131q0 -90 -68.5 -143.5t-181.5 -53.5z" />
    <glyph glyph-name="sacute" unicode="&#x15b;" horiz-adv-x="506" 
d="M179 598q63 94 95 165h128q-70 -90 -152 -165h-71zM256 -9q-119 0 -204 64l39 68q73 -55 166 -55q106 0 106 71q0 35 -23 50t-87 28q-96 17 -141.5 53t-45.5 107t52.5 113t130.5 42q104 0 188 -63l-39 -67q-73 52 -148 52q-41 0 -66.5 -17t-25.5 -52q0 -34 23.5 -50
t87.5 -30q97 -17 141 -52t44 -105q0 -74 -56.5 -115.5t-141.5 -41.5z" />
    <glyph glyph-name="Scircumflex" unicode="&#x15c;" horiz-adv-x="616" 
d="M171 777l-38 45q79 62 142 131h78q71 -76 144 -131l-38 -45q-83 46 -145 97q-62 -52 -143 -97zM305 -6q-170 0 -254 122l53 62q72 -105 206 -105q70 0 110 28t40 81q0 52 -36 79t-139 50q-112 24 -161.5 69t-49.5 126q0 87 61.5 141t163.5 54q156 0 235 -113l-52 -60
q-75 93 -181 93q-61 0 -96 -25.5t-35 -77.5q0 -49 31.5 -75t129.5 -48q120 -25 172 -73t52 -131q0 -90 -68.5 -143.5t-181.5 -53.5z" />
    <glyph glyph-name="scircumflex" unicode="&#x15d;" horiz-adv-x="506" 
d="M108 604l-38 44q79 62 142 131h78q71 -76 144 -131l-38 -44q-72 38 -145 96q-69 -56 -143 -96zM256 -9q-119 0 -204 64l39 68q73 -55 166 -55q106 0 106 71q0 35 -23 50t-87 28q-96 17 -141.5 53t-45.5 107t52.5 113t130.5 42q104 0 188 -63l-39 -67q-73 52 -148 52
q-41 0 -66.5 -17t-25.5 -52q0 -34 23.5 -50t87.5 -30q97 -17 141 -52t44 -105q0 -74 -56.5 -115.5t-141.5 -41.5z" />
    <glyph glyph-name="Scedilla" unicode="&#x15e;" horiz-adv-x="616" 
d="M317 -189q-89 0 -131 58l50 42q25 -40 79 -40t54 33q0 20 -18.5 29t-64.5 9v52q-156 8 -235 122l53 62q72 -105 206 -105q70 0 110 28t40 81q0 52 -36 79t-139 50q-112 24 -161.5 69t-49.5 126q0 87 61.5 141t163.5 54q156 0 235 -113l-52 -60q-75 93 -181 93
q-61 0 -96 -25.5t-35 -77.5q0 -49 31.5 -75t129.5 -48q120 -25 172 -73t52 -131q0 -81 -55.5 -133t-151.5 -62v-18q46 -4 74.5 -25.5t28.5 -55.5q0 -42 -39 -64t-95 -22z" />
    <glyph glyph-name="scedilla" unicode="&#x15f;" horiz-adv-x="506" 
d="M262 -189q-87 0 -131 58l50 42q25 -40 79 -40t54 33q0 20 -18.5 29t-64.5 9v50q-102 6 -179 63l39 68q73 -55 166 -55q106 0 106 71q0 35 -23 50t-87 28q-96 17 -141.5 53t-45.5 107t52.5 113t130.5 42q104 0 188 -63l-39 -67q-73 52 -148 52q-41 0 -66.5 -17t-25.5 -52
q0 -34 23.5 -50t87.5 -30q97 -17 141 -52t44 -105q0 -66 -45 -106t-116 -49v-15q46 -4 74.5 -25.5t28.5 -55.5q0 -42 -39 -64t-95 -22z" />
    <glyph glyph-name="Scaron" unicode="&#x160;" horiz-adv-x="616" 
d="M270 777q-66 73 -144 132l38 44q69 -40 145 -96q71 56 143 97l38 -45q-79 -59 -142 -132h-78zM305 -6q-170 0 -254 122l53 62q72 -105 206 -105q70 0 110 28t40 81q0 52 -36 79t-139 50q-112 24 -161.5 69t-49.5 126q0 87 61.5 141t163.5 54q156 0 235 -113l-52 -60
q-75 93 -181 93q-61 0 -96 -25.5t-35 -77.5q0 -49 31.5 -75t129.5 -48q120 -25 172 -73t52 -131q0 -90 -68.5 -143.5t-181.5 -53.5z" />
    <glyph glyph-name="scaron" unicode="&#x161;" horiz-adv-x="506" 
d="M214 604q-67 74 -144 131l38 44q65 -36 145 -96q61 50 143 97l38 -45q-78 -58 -142 -131h-78zM256 -9q-119 0 -204 64l39 68q73 -55 166 -55q106 0 106 71q0 35 -23 50t-87 28q-96 17 -141.5 53t-45.5 107t52.5 113t130.5 42q104 0 188 -63l-39 -67q-73 52 -148 52
q-41 0 -66.5 -17t-25.5 -52q0 -34 23.5 -50t87.5 -30q97 -17 141 -52t44 -105q0 -74 -56.5 -115.5t-141.5 -41.5z" />
    <glyph glyph-name="Tcedilla" unicode="&#x162;" horiz-adv-x="555" 
d="M271 -189q-87 0 -131 58l50 42q25 -40 79 -40t54 33q0 20 -18.5 29t-64.5 9v58h-10v617h-198v79h492v-79h-198v-617h-24v-22q46 -4 74.5 -25.5t28.5 -55.5q0 -42 -39 -64t-95 -22z" />
    <glyph glyph-name="tcedilla" unicode="&#x163;" horiz-adv-x="431" 
d="M266 -189q-87 0 -131 58l50 42q25 -40 79 -40t54 33q0 20 -18.5 29t-64.5 9v57q-107 28 -107 169v276h-100v78h100v144h97v-144h162v-78h-162v-273q0 -100 76 -100q37 0 77 17l16 -76q-43 -18 -97 -20v-14q46 -4 74.5 -25.5t28.5 -55.5q0 -42 -39 -64t-95 -22z" />
    <glyph glyph-name="Tcaron" unicode="&#x164;" horiz-adv-x="555" 
d="M241 777q-67 73 -144 132l37 44q71 -40 145 -96q68 55 144 97l37 -45q-78 -59 -142 -132h-77zM230 0v617h-198v79h492v-79h-198v-617h-96z" />
    <glyph glyph-name="tcaron" unicode="&#x165;" horiz-adv-x="431" 
d="M315 614q34 116 41 217h92q-19 -127 -77 -217h-56zM290 -8q-79 0 -120.5 45t-41.5 131v276h-100v78h100v144h97v-144h162v-78h-162v-273q0 -100 76 -100q37 0 77 17l16 -76q-46 -20 -104 -20z" />
    <glyph glyph-name="Tbar" unicode="&#x166;" horiz-adv-x="555" 
d="M477 274h-151v-274h-96v274h-151v76h151v267h-198v79h492v-79h-198v-267h151v-76z" />
    <glyph glyph-name="tbar" unicode="&#x167;" horiz-adv-x="431" 
d="M394 12q-46 -20 -104 -20q-79 0 -120.5 45t-41.5 131v80h-100v74h100v122h-100v78h100v144h97v-144h162v-78h-162v-122h165v-74h-165v-77q0 -100 76 -100q37 0 77 17z" />
    <glyph glyph-name="Utilde" unicode="&#x168;" horiz-adv-x="659" 
d="M397 782q-44 0 -82 51q-3 4 -10.5 14.5t-11 14.5t-9.5 10t-11.5 8.5t-11.5 2.5q-36 0 -35 -82v-10h-74v13q0 67 29.5 109t81.5 42q21 0 38 -8t26 -17.5t22 -25.5q3 -4 10 -14t10.5 -14t9 -10t11 -8.5t10.5 -2.5q36 0 36 81v10h73v-13q0 -67 -30 -109t-82 -42zM329 -9
q-119 0 -185.5 72.5t-66.5 186.5v446h97v-443q0 -83 37.5 -131.5t117.5 -48.5q81 0 118.5 48.5t37.5 131.5v443h95v-446q0 -114 -66.5 -186.5t-184.5 -72.5z" />
    <glyph glyph-name="utilde" unicode="&#x169;" 
d="M358 608q-20 0 -36.5 8.5t-25.5 18t-21 25.5q-4 5 -11 14t-10.5 14t-9.5 10.5t-11 8t-11 2.5q-37 0 -36 -82v-10h-73v13q0 67 29 109.5t82 42.5q21 0 38 -8.5t26 -17.5t21 -25q3 -3 9 -12t8.5 -12.5t7.5 -9.5t8.5 -9t8.5 -5t10 -2q35 0 35 81v10h74v-13q0 -67 -30 -109
t-82 -42zM399 522h97v-522h-96v90q-59 -99 -165 -99q-72 0 -114 47t-42 127v357h97v-339q0 -54 24 -81.5t66 -27.5q40 0 74.5 24t58.5 67v357z" />
    <glyph glyph-name="Umacron" unicode="&#x16a;" horiz-adv-x="659" 
d="M173 818v75h315v-75h-315zM329 -9q-119 0 -185.5 72.5t-66.5 186.5v446h97v-443q0 -83 37.5 -131.5t117.5 -48.5q81 0 118.5 48.5t37.5 131.5v443h95v-446q0 -114 -66.5 -186.5t-184.5 -72.5z" />
    <glyph glyph-name="umacron" unicode="&#x16b;" 
d="M133 644v76h315v-76h-315zM399 522h97v-522h-96v90q-59 -99 -165 -99q-72 0 -114 47t-42 127v357h97v-339q0 -54 24 -81.5t66 -27.5q40 0 74.5 24t58.5 67v357z" />
    <glyph glyph-name="Ubreve" unicode="&#x16c;" horiz-adv-x="659" 
d="M330 776q-84 0 -131 43.5t-48 132.5h80q1 -62 24 -87.5t75 -25.5t75.5 25.5t24.5 87.5h79q-1 -90 -47.5 -133t-131.5 -43zM329 -9q-119 0 -185.5 72.5t-66.5 186.5v446h97v-443q0 -83 37.5 -131.5t117.5 -48.5q81 0 118.5 48.5t37.5 131.5v443h95v-446
q0 -114 -66.5 -186.5t-184.5 -72.5z" />
    <glyph glyph-name="ubreve" unicode="&#x16d;" 
d="M291 603q-85 0 -131.5 43t-47.5 132h79q1 -62 24.5 -87t75.5 -25t75 25t24 87h80q-3 -175 -179 -175zM399 522h97v-522h-96v90q-59 -99 -165 -99q-72 0 -114 47t-42 127v357h97v-339q0 -54 24 -81.5t66 -27.5q40 0 74.5 24t58.5 67v357z" />
    <glyph glyph-name="Uring" unicode="&#x16e;" horiz-adv-x="659" 
d="M330 766q-63 0 -99.5 35t-36.5 99q0 65 37 101t99 36q63 0 99.5 -36t36.5 -101q0 -64 -36.5 -99t-99.5 -35zM330 823q67 0 67 77q0 80 -67 80t-67 -80q0 -77 67 -77zM329 -9q-119 0 -185.5 72.5t-66.5 186.5v446h97v-443q0 -83 37.5 -131.5t117.5 -48.5q81 0 118.5 48.5
t37.5 131.5v443h95v-446q0 -114 -66.5 -186.5t-184.5 -72.5z" />
    <glyph glyph-name="uring" unicode="&#x16f;" 
d="M291 592q-63 0 -100 35t-37 100q0 64 37 100t100 36q62 0 99 -36t37 -100q0 -65 -36.5 -100t-99.5 -35zM291 649q67 0 67 78q0 37 -17.5 58t-49.5 21q-67 0 -67 -79q0 -78 67 -78zM399 522h97v-522h-96v90q-59 -99 -165 -99q-72 0 -114 47t-42 127v357h97v-339
q0 -54 24 -81.5t66 -27.5q40 0 74.5 24t58.5 67v357z" />
    <glyph glyph-name="Uhungarumlaut" unicode="&#x170;" horiz-adv-x="659" 
d="M213 771q41 100 57 166h102q-34 -68 -103 -166h-56zM381 771q44 110 58 166h102q-34 -68 -103 -166h-57zM329 -9q-119 0 -185.5 72.5t-66.5 186.5v446h97v-443q0 -83 37.5 -131.5t117.5 -48.5q81 0 118.5 48.5t37.5 131.5v443h95v-446q0 -114 -66.5 -186.5t-184.5 -72.5z
" />
    <glyph glyph-name="uhungarumlaut" unicode="&#x171;" 
d="M170 598q40 102 57 165h101q-30 -61 -102 -165h-56zM337 598q41 95 58 165h102q-35 -71 -103 -165h-57zM399 522h97v-522h-96v90q-59 -99 -165 -99q-72 0 -114 47t-42 127v357h97v-339q0 -54 24 -81.5t66 -27.5q40 0 74.5 24t58.5 67v357z" />
    <glyph glyph-name="Uogonek" unicode="&#x172;" horiz-adv-x="659" 
d="M384 -189q-56 0 -91.5 26.5t-35.5 71.5t34 84q-102 12 -158 82.5t-56 174.5v446h97v-443q0 -83 37.5 -131.5t117.5 -48.5q81 0 118.5 48.5t37.5 131.5v443h95v-446q0 -108 -59.5 -179.5t-166.5 -78.5q-27 -28 -27 -61q0 -52 72 -52q31 0 71 9v-68q-47 -9 -86 -9z" />
    <glyph glyph-name="uogonek" unicode="&#x173;" 
d="M549 -180q-47 -9 -86 -9q-56 0 -91.5 26.5t-35.5 71.5q0 64 64 112v69q-59 -99 -165 -99q-72 0 -114 47t-42 127v357h97v-339q0 -54 24 -81.5t66 -27.5q40 0 74.5 24t58.5 67v357h97v-522h-55q-34 -33 -34 -69q0 -52 72 -52q30 0 70 9v-68z" />
    <glyph glyph-name="Wcircumflex" unicode="&#x174;" horiz-adv-x="810" 
d="M260 777l-37 45q78 62 142 131h77q73 -77 144 -131l-37 -45q-83 45 -146 97q-58 -49 -143 -97zM556 0l-137 486l-133 -486h-97l-155 696h97l111 -566l136 497h84l139 -497l111 566h96l-156 -696h-96z" />
    <glyph glyph-name="wcircumflex" unicode="&#x175;" horiz-adv-x="732" 
d="M217 604l-37 44q73 57 142 131h77q74 -78 145 -131l-38 -44q-77 41 -145 96q-67 -55 -144 -96zM470 0l-105 351l-103 -351h-91l-133 522h90l92 -402l107 362h77l111 -366l93 406h86l-133 -522h-91z" />
    <glyph glyph-name="Ycircumflex" unicode="&#x176;" horiz-adv-x="601" 
d="M155 777l-37 45q73 57 142 131h77q74 -78 145 -131l-38 -45q-84 46 -145 97q-60 -50 -144 -97zM349 0h-97v261l-230 435h106l175 -349l173 349h101l-228 -435v-261z" />
    <glyph glyph-name="ycircumflex" unicode="&#x177;" horiz-adv-x="512" 
d="M107 604l-38 44q79 62 142 131h78q71 -76 144 -131l-38 -44q-72 38 -145 96q-69 -56 -143 -96zM121 -181q-39 0 -79 9l11 79q31 -10 64 -10q40 0 61.5 26t36.5 78l-182 521h98l130 -402l126 402h96l-196 -560q-50 -143 -166 -143z" />
    <glyph glyph-name="Ydieresis" unicode="&#x178;" horiz-adv-x="601" 
d="M391 786q-26 0 -42.5 14.5t-16.5 41.5q0 29 16 44.5t43 15.5q58 0 58 -61q0 -26 -16 -40.5t-42 -14.5zM208 786q-26 0 -42.5 14.5t-16.5 41.5q0 29 16.5 44.5t42.5 15.5q58 0 58 -61q0 -26 -16 -40.5t-42 -14.5zM349 0h-97v261l-230 435h106l175 -349l173 349h101
l-228 -435v-261z" />
    <glyph glyph-name="Zacute" unicode="&#x179;" horiz-adv-x="589" 
d="M208 771q59 87 96 166h128q-72 -90 -153 -166h-71zM533 0h-476v80l360 537h-360v79h476v-79l-365 -537h365v-80z" />
    <glyph glyph-name="zacute" unicode="&#x17a;" horiz-adv-x="482" 
d="M164 598q63 94 95 165h128q-76 -95 -152 -165h-71zM428 0h-374v78l267 366h-267v78h374v-78l-263 -366h263v-78z" />
    <glyph glyph-name="Zdotaccent" unicode="&#x17b;" horiz-adv-x="589" 
d="M295 786q-29 0 -46 14.5t-17 41.5q0 29 17 44.5t46 15.5t46 -15.5t17 -45.5q0 -26 -17.5 -40.5t-45.5 -14.5zM533 0h-476v80l360 537h-360v79h476v-79l-365 -537h365v-80z" />
    <glyph glyph-name="zdotaccent" unicode="&#x17c;" horiz-adv-x="482" 
d="M252 612q-29 0 -46 14.5t-17 42.5q0 29 17 44.5t46 15.5t46 -16t17 -45q0 -27 -17 -41.5t-46 -14.5zM428 0h-374v78l267 366h-267v78h374v-78l-263 -366h263v-78z" />
    <glyph glyph-name="Zcaron" unicode="&#x17d;" horiz-adv-x="589" 
d="M257 777q-71 77 -144 132l37 44q69 -39 146 -96q66 54 143 97l38 -45q-78 -58 -143 -132h-77zM533 0h-476v80l360 537h-360v79h476v-79l-365 -537h365v-80z" />
    <glyph glyph-name="zcaron" unicode="&#x17e;" horiz-adv-x="482" 
d="M214 604q-67 74 -144 131l38 44q65 -36 145 -96q61 50 143 97l38 -45q-78 -58 -142 -131h-78zM428 0h-374v78l267 366h-267v78h374v-78l-263 -366h263v-78z" />
    <glyph glyph-name="florin" unicode="&#x192;" horiz-adv-x="588" 
d="M185 -5q-72 3 -118 20l16 73q46 -16 85 -16q44 0 61 21.5t17 76.5v192h-166v78h166v115q0 70 42.5 112t113.5 42q75 0 118 -20l-15 -73q-46 17 -85 17q-42 0 -60 -22t-18 -76v-95h171v-78h-171v-214q0 -70 -42 -111.5t-115 -41.5z" />
    <glyph glyph-name="Aringacute" unicode="&#x1fa;" horiz-adv-x="637" 
d="M319 746q-63 0 -99.5 35t-36.5 99q0 54 25.5 88t71.5 44q58 88 90 158h128q-66 -84 -143 -157q47 -10 73.5 -44t26.5 -89q0 -64 -36.5 -99t-99.5 -35zM319 803q67 0 67 77q0 79 -67 79t-67 -79q0 -77 67 -77zM417 274l-102 317l-101 -317h203zM506 0l-63 195h-255
l-62 -195h-94l240 696h94l241 -696h-101z" />
    <glyph glyph-name="aringacute" unicode="&#x1fb;" horiz-adv-x="541" 
d="M256 592q-63 0 -99.5 35t-36.5 100q0 53 25.5 87t71.5 45h-3q64 96 96 165h128q-67 -85 -151 -164q49 -8 77 -42.5t28 -90.5q0 -65 -36.5 -100t-99.5 -35zM256 649q67 0 67 78q0 37 -17 58t-50 21q-67 0 -67 -79q0 -78 67 -78zM233 64q65 0 117 55v109h-121
q-40 0 -63.5 -19.5t-23.5 -59.5q0 -85 91 -85zM514 1q-51 -12 -91 7t-48 62q-69 -79 -169 -79q-69 0 -113 40t-44 111q0 72 46.5 112.5t125.5 40.5h128v59q0 49 -25 76t-73 27q-43 0 -69 -19t-45 -65l-74 39q53 120 195 120q82 0 133.5 -45.5t51.5 -123.5v-238
q0 -35 18.5 -47.5t52.5 -2.5v-74z" />
    <glyph glyph-name="AEacute" unicode="&#x1fc;" horiz-adv-x="861" 
d="M473 771q64 97 95 166h128q-75 -94 -152 -166h-71zM343 617l-119 -338h193v338h-74zM417 201h-220l-70 -201h-95l254 696h496v-79h-269v-204h229v-80h-229v-253h269v-80h-365v201z" />
    <glyph glyph-name="aeacute" unicode="&#x1fd;" horiz-adv-x="830" 
d="M329 598q58 84 96 165h128q-73 -92 -153 -165h-71zM561 457q-54 0 -83 -35t-35 -113h222q-3 148 -104 148zM751 74q-31 -40 -78.5 -61.5t-100.5 -21.5q-115 0 -174 86q-89 -86 -190 -86q-70 0 -114.5 40t-44.5 111q0 72 46.5 113t125.5 41h129v58q0 49 -25.5 76t-73.5 27
q-43 0 -69 -19t-45 -65l-74 40q54 119 195 119q101 0 151 -66q55 66 152 66q88 0 142.5 -63.5t54.5 -176.5v-55h-316q9 -170 133 -170q72 0 119 63zM232 64q71 0 136 77q-13 37 -16 87h-122q-40 0 -64 -20t-24 -60t23.5 -62t66.5 -22z" />
    <glyph glyph-name="Oslashacute" unicode="&#x1fe;" horiz-adv-x="664" 
d="M250 771q59 87 96 166h128q-72 -90 -153 -166h-71zM157 356q0 -165 51 -231l180 492q-23 8 -57 8q-86 0 -130 -62.5t-44 -206.5zM331 71q88 0 132 64.5t44 220.5q0 164 -61 227l-184 -500q30 -12 69 -12zM331 -9q-50 0 -95 14l-35 -92h-73l46 125q-114 86 -114 318
q0 176 72.5 262.5t199.5 86.5q46 0 83 -10l32 89h74l-42 -117q126 -81 126 -311q0 -186 -72.5 -275.5t-201.5 -89.5z" />
    <glyph glyph-name="oslashacute" unicode="&#x1ff;" horiz-adv-x="588" 
d="M210 598q58 84 96 165h128q-72 -91 -152 -165h-72zM153 260q0 -96 29 -143l148 325q-21 11 -54 11q-62 0 -92.5 -46.5t-30.5 -146.5zM276 69q63 0 93.5 45t30.5 145q0 92 -25 138l-147 -319q21 -9 48 -9zM276 -9q-44 0 -80 13l-42 -91h-69l56 122q-83 69 -83 225
q0 133 59 202.5t160 69.5q43 0 85 -16l43 94h69l-58 -127q79 -71 79 -223q0 -133 -58.5 -201t-160.5 -68z" />
    <glyph glyph-name="Scommaaccent" unicode="&#x218;" horiz-adv-x="616" 
d="M305 -6q-170 0 -254 122l53 62q72 -105 206 -105q70 0 110 28t40 81q0 52 -36 79t-139 50q-112 24 -161.5 69t-49.5 126q0 87 61.5 141t163.5 54q156 0 235 -113l-52 -60q-75 93 -181 93q-61 0 -96 -25.5t-35 -77.5q0 -49 31.5 -75t129.5 -48q120 -25 172 -73t52 -131
q0 -90 -68.5 -143.5t-181.5 -53.5zM197 -251q39 87 63 174h125q-47 -86 -121 -174h-67z" />
    <glyph glyph-name="scommaaccent" unicode="&#x219;" horiz-adv-x="506" 
d="M256 -9q-119 0 -204 64l39 68q73 -55 166 -55q106 0 106 71q0 35 -23 50t-87 28q-96 17 -141.5 53t-45.5 107t52.5 113t130.5 42q104 0 188 -63l-39 -67q-73 52 -148 52q-41 0 -66.5 -17t-25.5 -52q0 -34 23.5 -50t87.5 -30q97 -17 141 -52t44 -105q0 -74 -56.5 -115.5
t-141.5 -41.5zM133 -251q39 87 63 174h125q-47 -86 -121 -174h-67z" />
    <glyph glyph-name="Tcommaaccent" unicode="&#x21a;" horiz-adv-x="555" 
d="M230 0v617h-198v79h492v-79h-198v-617h-96zM157 -251q37 87 63 174h125q-48 -85 -121 -174h-67z" />
    <glyph glyph-name="tcommaaccent" unicode="&#x21b;" horiz-adv-x="431" 
d="M290 -8q-79 0 -120.5 45t-41.5 131v276h-100v78h100v144h97v-144h162v-78h-162v-273q0 -100 76 -100q37 0 77 17l16 -76q-46 -20 -104 -20zM147 -251q39 87 63 174h125q-47 -86 -121 -174h-67z" />
    <glyph glyph-name="dotlessj" unicode="&#x237;" horiz-adv-x="283" 
d="M39 -181q-38 0 -97 19l17 77q44 -19 71 -19q70 0 70 83v543h96v-545q0 -78 -43.5 -118t-113.5 -40z" />
    <glyph glyph-name="uni02BB" unicode="&#x2bb;" horiz-adv-x="314" 
d="M238 696q-26 -86 -37 -141t-16 -136h-111q12 91 37 152t66 125h61z" />
    <glyph glyph-name="uni02BC" unicode="&#x2bc;" horiz-adv-x="314" 
d="M69 419q26 87 37 142t16 135h110q-12 -92 -37 -154t-66 -123h-60z" />
    <glyph glyph-name="circumflex" unicode="&#x2c6;" horiz-adv-x="530" 
d="M120 604l-38 44q77 60 143 131h77q77 -80 144 -131l-37 -44q-75 40 -146 96q-64 -54 -143 -96z" />
    <glyph glyph-name="caron" unicode="&#x2c7;" horiz-adv-x="530" 
d="M227 604q-70 75 -145 131l38 44q65 -36 145 -96q62 51 144 97l37 -45q-74 -55 -142 -131h-77z" />
    <glyph glyph-name="uni02C9" unicode="&#x2c9;" horiz-adv-x="530" 
d="M107 644v76h315v-76h-315z" />
    <glyph glyph-name="breve" unicode="&#x2d8;" horiz-adv-x="530" 
d="M264 603q-85 0 -131.5 43t-47.5 132h80q1 -62 24 -87t75 -25t75.5 25t24.5 87h79q-1 -89 -47.5 -132t-131.5 -43z" />
    <glyph glyph-name="dotaccent" unicode="&#x2d9;" horiz-adv-x="129" 
d="M63 612q-29 0 -46 14.5t-17 42.5q0 29 17 44.5t46 15.5t46 -16t17 -45q0 -27 -17 -41.5t-46 -14.5z" />
    <glyph glyph-name="ring" unicode="&#x2da;" horiz-adv-x="530" 
d="M264 592q-63 0 -99.5 35t-36.5 100q0 64 37 100t99 36q63 0 99.5 -35.5t36.5 -100.5t-36.5 -100t-99.5 -35zM264 649q67 0 67 78q0 37 -17 58t-50 21t-50 -21t-17 -58q0 -78 67 -78z" />
    <glyph glyph-name="ogonek" unicode="&#x2db;" horiz-adv-x="530" 
d="M303 -189q-56 0 -91.5 26.5t-35.5 71.5t32 82t76 54l21 -25q-59 -42 -59 -89q0 -52 72 -52q32 0 70 9v-68q-45 -9 -85 -9z" />
    <glyph glyph-name="tilde" unicode="&#x2dc;" horiz-adv-x="530" 
d="M331 608q-45 0 -82 52l-10.5 14t-11 14t-10 10t-11.5 8.5t-11 2.5q-36 0 -35 -82v-10h-74v13q0 67 29.5 109.5t81.5 42.5q21 0 38.5 -8.5t26 -17t21.5 -25.5q3 -4 8.5 -12.5t8.5 -12t8 -9.5t8.5 -9t8 -5t9.5 -2q36 0 36 81v10h73v-13q0 -67 -30 -109t-82 -42z" />
    <glyph glyph-name="hungarumlaut" unicode="&#x2dd;" horiz-adv-x="530" 
d="M143 598q40 97 57 165h102q-35 -71 -103 -165h-56zM311 598q43 106 58 165h102q-31 -62 -103 -165h-57z" />
    <glyph glyph-name="gravecmb" unicode="&#x300;" horiz-adv-x="0" 
d="M8 598q-84 76 -153 165h123q31 -66 96 -165h-66z" />
    <glyph glyph-name="acutecmb" unicode="&#x301;" horiz-adv-x="0" 
d="M-88 598q63 94 95 165h128q-76 -95 -152 -165h-71z" />
    <glyph glyph-name="circumflexcmb" unicode="&#x302;" horiz-adv-x="0" 
d="M-144 604l-38 44q79 62 142 131h78q71 -76 144 -131l-38 -44q-72 38 -145 96q-69 -56 -143 -96z" />
    <glyph glyph-name="tildecmb" unicode="&#x303;" horiz-adv-x="0" 
d="M67 608q-45 0 -82 52q-4 5 -11 14t-11 14t-9.5 10.5t-11 8t-11.5 2.5q-37 0 -36 -82v-10h-73v13q0 67 29.5 109.5t81.5 42.5q21 0 38 -8.5t26 -17.5t21 -25l10.5 -14t11 -14.5t9 -10.5t11 -8.5t10.5 -2.5q36 0 36 81v10h73v-13q0 -67 -30 -109t-82 -42z" />
    <glyph glyph-name="macroncmb" unicode="&#x304;" horiz-adv-x="0" 
d="M-158 644v76h316v-76h-316z" />
    <glyph glyph-name="brevecmb" unicode="&#x306;" horiz-adv-x="0" 
d="M0 603q-85 0 -131.5 43t-47.5 132h79q1 -62 24.5 -87t75.5 -25t75.5 25t24.5 87h79q-1 -89 -47.5 -132t-131.5 -43z" />
    <glyph glyph-name="dotaccentcmb" unicode="&#x307;" horiz-adv-x="0" 
d="M0 612q-29 0 -46 14.5t-17 42.5q0 29 17 44.5t46 15.5t46 -16t17 -45q0 -27 -17 -41.5t-46 -14.5z" />
    <glyph glyph-name="dieresiscmb" unicode="&#x308;" horiz-adv-x="0" 
d="M91 612q-26 0 -42 14.5t-16 42.5q0 29 16 44.5t42 15.5q27 0 42.5 -16t15.5 -45q0 -27 -16 -41.5t-42 -14.5zM-91 612q-27 0 -43 14.5t-16 42.5q0 29 16 44.5t43 15.5q26 0 41.5 -16t15.5 -45q0 -27 -15.5 -41.5t-41.5 -14.5z" />
    <glyph glyph-name="ringcmb" unicode="&#x30a;" horiz-adv-x="0" 
d="M0 592q-63 0 -99.5 35t-36.5 100q0 64 37 100t99 36t99 -36t37 -100q0 -65 -36.5 -100t-99.5 -35zM0 649q67 0 67 78q0 37 -17 58t-50 21q-67 0 -67 -79q0 -78 67 -78z" />
    <glyph glyph-name="hungarumlautcmb" unicode="&#x30b;" horiz-adv-x="0" 
d="M-121 598q43 109 57 165h102q-35 -71 -103 -165h-56zM47 598q40 99 58 165h101q-30 -61 -102 -165h-57z" />
    <glyph glyph-name="caroncmb" unicode="&#x30c;" horiz-adv-x="0" 
d="M-38 604q-67 74 -144 131l38 44q69 -40 145 -96q61 50 143 97l38 -45q-78 -58 -142 -131h-78z" />
    <glyph glyph-name="commaturnedabovecmb" unicode="&#x312;" horiz-adv-x="0" 
d="M-90 600q50 89 120 173h68q-38 -83 -64 -173h-124z" />
    <glyph glyph-name="commaaccentcmb" unicode="&#x326;" horiz-adv-x="0" 
d="M-103 -251q39 87 63 174h125q-47 -86 -121 -174h-67z" />
    <glyph glyph-name="cedillacmb" unicode="&#x327;" horiz-adv-x="0" 
d="M2 -189q-89 0 -131 58l50 42q25 -40 79 -40t54 33q0 20 -18.5 29t-64.5 9v73h62v-37q46 -4 74.5 -25.5t28.5 -55.5q0 -42 -39 -64t-95 -22z" />
    <glyph glyph-name="ogonekcmb" unicode="&#x328;" horiz-adv-x="0" 
d="M39 -189q-57 0 -92 26.5t-35 71.5t31.5 82t75.5 54l22 -25q-59 -42 -59 -89q0 -52 72 -52q32 0 70 9v-68q-45 -9 -85 -9z" />
    <glyph glyph-name="Wgrave" unicode="&#x1e80;" horiz-adv-x="810" 
d="M413 771q-84 78 -154 166h123q37 -75 97 -166h-66zM556 0l-137 486l-133 -486h-97l-155 696h97l111 -566l136 497h84l139 -497l111 566h96l-156 -696h-96z" />
    <glyph glyph-name="wgrave" unicode="&#x1e81;" horiz-adv-x="732" 
d="M370 598q-82 75 -154 165h123q38 -77 97 -165h-66zM470 0l-105 351l-103 -351h-91l-133 522h90l92 -402l107 362h77l111 -366l93 406h86l-133 -522h-91z" />
    <glyph glyph-name="Wacute" unicode="&#x1e82;" horiz-adv-x="810" 
d="M319 771q59 87 96 166h128q-72 -90 -153 -166h-71zM556 0l-137 486l-133 -486h-97l-155 696h97l111 -566l136 497h84l139 -497l111 566h96l-156 -696h-96z" />
    <glyph glyph-name="wacute" unicode="&#x1e83;" horiz-adv-x="732" 
d="M273 598q58 84 96 165h128q-72 -91 -152 -165h-72zM470 0l-105 351l-103 -351h-91l-133 522h90l92 -402l107 362h77l111 -366l93 406h86l-133 -522h-91z" />
    <glyph glyph-name="Wdieresis" unicode="&#x1e84;" horiz-adv-x="810" 
d="M496 786q-27 0 -43 14.5t-16 41.5q0 29 16 44.5t43 15.5q26 0 42 -15.5t16 -45.5q0 -26 -16 -40.5t-42 -14.5zM313 786q-27 0 -43 14.5t-16 41.5q0 29 16 44.5t43 15.5q58 0 58 -61q0 -26 -16 -40.5t-42 -14.5zM556 0l-137 486l-133 -486h-97l-155 696h97l111 -566
l136 497h84l139 -497l111 566h96l-156 -696h-96z" />
    <glyph glyph-name="wdieresis" unicode="&#x1e85;" horiz-adv-x="732" 
d="M453 612q-27 0 -43 14.5t-16 42.5t16.5 44t42.5 16q27 0 42.5 -16t15.5 -45q0 -27 -16 -41.5t-42 -14.5zM270 612q-26 0 -42.5 14.5t-16.5 42.5t16.5 44t42.5 16q27 0 42.5 -16t15.5 -45q0 -27 -16 -41.5t-42 -14.5zM470 0l-105 351l-103 -351h-91l-133 522h90l92 -402
l107 362h77l111 -366l93 406h86l-133 -522h-91z" />
    <glyph glyph-name="Ygrave" unicode="&#x1ef2;" horiz-adv-x="601" 
d="M308 771q-84 78 -154 166h123q37 -75 97 -166h-66zM349 0h-97v261l-230 435h106l175 -349l173 349h101l-228 -435v-261z" />
    <glyph glyph-name="ygrave" unicode="&#x1ef3;" horiz-adv-x="512" 
d="M259 598q-84 76 -153 165h123q31 -66 96 -165h-66zM121 -181q-39 0 -79 9l11 79q31 -10 64 -10q40 0 61.5 26t36.5 78l-182 521h98l130 -402l126 402h96l-196 -560q-50 -143 -166 -143z" />
    <glyph glyph-name="uni2000" unicode="&#x2000;" horiz-adv-x="483" 
 />
    <glyph glyph-name="uni2001" unicode="&#x2001;" horiz-adv-x="961" 
 />
    <glyph glyph-name="uni2002" unicode="&#x2002;" horiz-adv-x="483" 
 />
    <glyph glyph-name="uni2003" unicode="&#x2003;" horiz-adv-x="961" 
 />
    <glyph glyph-name="uni2004" unicode="&#x2004;" horiz-adv-x="322" 
 />
    <glyph glyph-name="uni2005" unicode="&#x2005;" horiz-adv-x="243" 
 />
    <glyph glyph-name="uni2007" unicode="&#x2007;" horiz-adv-x="676" 
 />
    <glyph glyph-name="uni2009" unicode="&#x2009;" horiz-adv-x="163" 
 />
    <glyph glyph-name="uni200A" unicode="&#x200a;" horiz-adv-x="100" 
 />
    <glyph glyph-name="uni200B" unicode="&#x200b;" horiz-adv-x="0" 
 />
    <glyph glyph-name="endash" unicode="&#x2013;" horiz-adv-x="626" 
d="M74 265v80h478v-80h-478z" />
    <glyph glyph-name="emdash" unicode="&#x2014;" horiz-adv-x="884" 
d="M80 265v82h725v-82h-725z" />
    <glyph glyph-name="horizontalbar" unicode="&#x2015;" horiz-adv-x="725" 
d="M0 265v82h725v-82h-725z" />
    <glyph glyph-name="quoteleft" unicode="&#x2018;" horiz-adv-x="314" 
d="M238 696q-26 -86 -37 -141t-16 -136h-111q12 91 37 152t66 125h61z" />
    <glyph glyph-name="quoteright" unicode="&#x2019;" horiz-adv-x="314" 
d="M69 419q26 87 37 142t16 135h110q-12 -92 -37 -154t-66 -123h-60z" />
    <glyph glyph-name="quotesinglbase" unicode="&#x201a;" horiz-adv-x="331" 
d="M69 -135q26 89 37 143t16 134h110q-12 -91 -37 -152.5t-66 -124.5h-60z" />
    <glyph glyph-name="quotereversed" unicode="&#x201b;" horiz-adv-x="381" 
d="M248 419h-60q-32 50 -47 77t-31 78.5t-26 121.5h111q7 -94 16.5 -142t36.5 -135z" />
    <glyph glyph-name="quotedblleft" unicode="&#x201c;" horiz-adv-x="522" 
d="M238 696q-27 -89 -36.5 -136t-16.5 -141h-111q9 70 25.5 122t30.5 78t47 77h61zM445 696q-27 -91 -36.5 -138t-15.5 -139h-111q10 70 26 121.5t30.5 78.5t46.5 77h60z" />
    <glyph glyph-name="quotedblright" unicode="&#x201d;" horiz-adv-x="522" 
d="M277 419q26 88 35.5 135.5t16.5 141.5h112q-9 -70 -26 -122t-31 -78t-47 -77h-60zM69 419q27 87 36.5 135t16.5 142h111q-10 -70 -26 -121.5t-31 -78.5t-47 -77h-60z" />
    <glyph glyph-name="quotedblbase" unicode="&#x201e;" horiz-adv-x="540" 
d="M277 -128q26 88 35.5 135.5t16.5 141.5h112q-9 -70 -26 -122t-31 -78t-47 -77h-60zM69 -128q27 87 36.5 135t16.5 142h111q-10 -70 -26 -121.5t-31 -78.5t-47 -77h-60z" />
    <glyph glyph-name="dagger" unicode="&#x2020;" horiz-adv-x="644" 
d="M274 -174v610h-112l-32 -184h-71l24 270h189l-6 174h113l-5 -174h188l23 -270h-70l-31 184h-113v-610h-97z" />
    <glyph glyph-name="daggerdbl" unicode="&#x2021;" horiz-adv-x="660" 
d="M273 -174l6 170h-196l-24 204h71l32 -119h121v360h-121l-32 -119h-71l24 204h196l-6 170h114l-6 -170h196l25 -204h-72l-31 119h-120v-360h120l31 119h72l-25 -204h-196l6 -170h-114z" />
    <glyph glyph-name="bullet" unicode="&#x2022;" horiz-adv-x="527" 
d="M265 205q-134 0 -134 146q0 70 36 104.5t98 34.5q63 0 98 -35t35 -106q0 -73 -35.5 -108.5t-97.5 -35.5z" />
    <glyph glyph-name="ellipsis" unicode="&#x2026;" horiz-adv-x="997" 
d="M166 -6q-34 0 -54 20t-20 56q0 34 20 54.5t54 20.5t54 -20.5t20 -54.5q0 -36 -20 -56t-54 -20zM498 -6q-33 0 -53 20t-20 56q0 34 20 54.5t53 20.5q34 0 54 -20.5t20 -54.5q0 -36 -20 -56t-54 -20zM831 -6q-34 0 -54 20t-20 56q0 34 20 54.5t54 20.5q33 0 53.5 -20.5
t20.5 -54.5q0 -35 -20.5 -55.5t-53.5 -20.5z" />
    <glyph glyph-name="perthousand" unicode="&#x2030;" horiz-adv-x="1184" 
d="M217 334q-66 0 -104.5 47t-38.5 136t39.5 138.5t103.5 49.5q66 0 104.5 -49t38.5 -138q0 -90 -38.5 -137t-104.5 -47zM184 0l400 696h92l-400 -696h-92zM217 399q63 0 63 119q0 123 -63 123t-63 -123q0 -119 63 -119zM967 -9q-66 0 -104.5 46.5t-38.5 136.5
q0 89 39.5 138.5t103.5 49.5q66 0 105 -49t39 -138q0 -90 -38.5 -137t-105.5 -47zM643 -9q-66 0 -104.5 46.5t-38.5 136.5q0 89 39 138.5t104 49.5q66 0 104.5 -49t38.5 -138q0 -91 -38.5 -137.5t-104.5 -46.5zM967 56q63 0 63 119q0 122 -63 122t-63 -122q0 -119 63 -119z
M643 56q62 0 62 119q0 122 -62 122q-63 0 -63 -122q0 -119 63 -119z" />
    <glyph glyph-name="minute" unicode="&#x2032;" horiz-adv-x="346" 
d="M65 419q26 87 37 142t16 135h110q-12 -92 -37 -154t-66 -123h-60z" />
    <glyph glyph-name="second" unicode="&#x2033;" horiz-adv-x="568" 
d="M277 419q26 88 35.5 135.5t16.5 141.5h112q-9 -70 -26 -122t-31 -78t-47 -77h-60zM69 419q27 87 36.5 135t16.5 142h111q-10 -70 -26 -121.5t-31 -78.5t-47 -77h-60z" />
    <glyph glyph-name="guilsinglleft" unicode="&#x2039;" horiz-adv-x="494" 
d="M379 74l-264 180v102l264 180v-96l-198 -135l198 -135v-96z" />
    <glyph glyph-name="guilsinglright" unicode="&#x203a;" horiz-adv-x="494" 
d="M115 74v96l199 135l-199 135v96l264 -180v-102z" />
    <glyph glyph-name="exclamdbl" unicode="&#x203c;" horiz-adv-x="561" 
d="M114 216l-24 480h120l-22 -480h-74zM372 216l-23 480h119l-22 -480h-74zM152 -7q-33 0 -51 19.5t-18 51.5t18 51t51 19t51 -19t18 -51t-18 -51.5t-51 -19.5zM411 -7q-34 0 -52 19.5t-18 51.5t18 51t52 19q32 0 50 -19t18 -51t-18 -51.5t-50 -19.5z" />
    <glyph glyph-name="fraction" unicode="&#x2044;" horiz-adv-x="259" 
d="M-74 0l320 696h86l-319 -696h-87z" />
    <glyph glyph-name="Euro" unicode="&#x20ac;" horiz-adv-x="664" 
d="M616 206q-9 -97 -73.5 -156t-174.5 -59q-215 0 -260 236h-80v65h72q-2 20 -2 64q0 32 1 47h-71v64h79q21 120 88.5 179t173.5 59q108 0 172 -58.5t75 -159.5l-93 -20q-10 80 -47.5 119t-108.5 39q-134 0 -164 -158h178v-64h-185q-2 -28 -2 -47q0 -26 2 -64h185v-65h-176
q31 -156 162 -156q75 0 111.5 39t44.5 115z" />
    <glyph glyph-name="lsquare" unicode="&#x2113;" horiz-adv-x="503" 
d="M240 293q37 0 58 15t27 51l30 184q6 42 -8.5 62t-55.5 20q-75 0 -86 -69l-30 -188q-13 -75 65 -75zM374 28q-79 -34 -152 -34q-91 0 -139 50.5t-33 138.5l60 375q12 74 63 110.5t126 36.5q88 0 126 -41.5t26 -119.5l-29 -189q-12 -68 -57.5 -103t-114.5 -35q-62 0 -93 31
l-10 -62q-7 -51 17.5 -79.5t75.5 -28.5q63 0 131 34z" />
    <glyph glyph-name="numero" unicode="&#x2116;" horiz-adv-x="1004" 
d="M762 261q-79 0 -125.5 57t-46.5 168q0 105 47 161.5t125 56.5q79 0 125.5 -57t46.5 -163q0 -110 -46.5 -166.5t-125.5 -56.5zM762 339q78 0 78 145q0 141 -78 141t-78 -140q0 -76 19 -111t59 -35zM178 565v-565h-92v696h135l198 -588v588h91v-696h-141z" />
    <glyph glyph-name="trademark" unicode="&#x2122;" horiz-adv-x="780" 
d="M165 383v260h-103v53h258v-53h-95v-260h-60zM433 622v-239h-56v313h79l72 -193l73 193h77v-313h-55l-1 239l-69 -179h-50z" />
    <glyph glyph-name="Ohm" unicode="&#x2126;" horiz-adv-x="731" 
 />
    <glyph glyph-name="oneeighth" unicode="&#x215b;" horiz-adv-x="948" 
d="M272 0l320 696h87l-319 -696h-88z" />
    <glyph glyph-name="threeeighths" unicode="&#x215c;" horiz-adv-x="982" 
d="M287 0l320 696h86l-319 -696h-87z" />
    <glyph glyph-name="fiveeighths" unicode="&#x215d;" horiz-adv-x="983" 
d="M287 0l320 696h86l-319 -696h-87z" />
    <glyph glyph-name="seveneighths" unicode="&#x215e;" horiz-adv-x="956" 
d="M242 0l320 696h86l-319 -696h-87z" />
    <glyph glyph-name="minus" unicode="&#x2212;" horiz-adv-x="626" 
d="M74 265v80h478v-80h-478z" />
    <glyph glyph-name="uni2215" unicode="&#x2215;" horiz-adv-x="259" 
d="M-74 0l320 696h86l-319 -696h-87z" />
    <glyph glyph-name="uni2219" unicode="&#x2219;" horiz-adv-x="331" 
d="M166 261q-34 0 -54 20.5t-20 55.5q0 34 20 54.5t54 20.5t54 -20.5t20 -54.5q0 -35 -20.5 -55.5t-53.5 -20.5z" />
    <glyph glyph-name="approxequal" unicode="&#x2248;" horiz-adv-x="643" 
d="M440 346q-47 0 -75.5 21.5t-61.5 77.5q-41 68 -57 84t-47 16q-59 0 -59 -116v-70h-79v75q0 90 38 139.5t102 49.5q49 0 78.5 -22t61.5 -77q40 -67 55.5 -83t45.5 -16q60 0 60 108v77h80v-84q0 -85 -39 -132.5t-103 -47.5zM440 -2q-47 0 -75.5 22t-61.5 78
q-42 67 -57.5 82.5t-45.5 15.5q-60 0 -60 -115v-71h-79v76q0 88 38.5 138t101.5 50q49 0 78.5 -21.5t61.5 -76.5q40 -68 56 -84t45 -16q60 0 60 108v77h80v-83q0 -86 -38.5 -133t-103.5 -47z" />
    <glyph glyph-name="notequal" unicode="&#x2260;" horiz-adv-x="643" 
d="M566 182h-248l-35 -135h-77l36 135h-165v78h185l49 188h-234v77h254l36 137h75l-35 -137h159v-77h-179l-49 -188h228v-78z" />
    <glyph glyph-name="lessequal" unicode="&#x2264;" horiz-adv-x="626" 
d="M548 134l-470 204v88l470 204v-84l-386 -164l386 -164v-84zM78 0v75h470v-75h-470z" />
    <glyph glyph-name="greaterequal" unicode="&#x2265;" horiz-adv-x="626" 
d="M78 134v84l386 164l-386 164v84l470 -204v-88zM548 0h-470v75h470v-75z" />
    <glyph glyph-name="commaaccent" unicode="&#xf6c3;" horiz-adv-x="530" 
d="M162 -251q38 87 63 174h125q-48 -85 -121 -174h-67z" />
    <glyph glyph-name="apple" unicode="&#xf8ff;" horiz-adv-x="579" 
d="M333 450l165 23h69v-36h-69l-159 -21l39 -51h120l38 -101l27 -50l-30 -15l-28 53l-31 78h-82l12 -139h61l12 -189l24 -63l-30 -15l-30 74l-10 153h-29l-69 -179h-85l-71 179h-29l-9 -153l-29 -74l-32 15l25 63l12 189h61l11 139h-81l-30 -78l-28 -53l-31 15l28 50l36 101
h121l39 51l-160 21h-68v36h68l167 -23v38l-32 19v43l50 12v18l-102 52l-49 11l1 34l48 -8l127 -62l127 62l46 8l2 -34l-48 -11l-105 -52v-18l51 -12v-43l-31 -19v-38z" />
    <glyph glyph-name="uniFEFF" unicode="&#xfeff;" horiz-adv-x="0" 
 />
    <glyph glyph-name="dot" horiz-adv-x="0" 
d="M0 621q-53 0 -53 50q0 52 53 52t53 -53q0 -49 -53 -49z" />
    <glyph glyph-name="dot.round" horiz-adv-x="0" 
d="M0 621q-53 0 -53 50q0 52 53 52t53 -53q0 -49 -53 -49z" />
    <glyph glyph-name="dot.square" horiz-adv-x="0" 
d="M-46 626v91h92v-91h-92z" />
    <glyph glyph-name="space.frac" horiz-adv-x="252" 
 />
    <glyph glyph-name="caron.salt" horiz-adv-x="530" 
d="M199 479q33 110 41 217h92q-19 -127 -77 -217h-56z" />
    <glyph glyph-name="caroncmb.salt" horiz-adv-x="0" 
d="M-65 479q34 116 41 217h92q-18 -124 -77 -217h-56z" />
    <glyph glyph-name="I.i" horiz-adv-x="285" 
d="M95 0v696h96v-696h-96z" />
    <glyph glyph-name="Igrave.i" horiz-adv-x="285" 
d="M144 771q-80 74 -153 166h123q30 -63 96 -166h-66zM95 0v696h96v-696h-96z" />
    <glyph glyph-name="Iacute.i" horiz-adv-x="285" 
d="M71 771q59 87 96 166h128q-72 -90 -153 -166h-71zM95 0v696h96v-696h-96z" />
    <glyph glyph-name="Icircumflex.i" horiz-adv-x="285" 
d="M-2 777l-38 45q77 60 143 131h77q77 -80 144 -131l-37 -45q-83 45 -146 97q-58 -49 -143 -97zM95 0v696h96v-696h-96z" />
    <glyph glyph-name="Idieresis.i" horiz-adv-x="285" 
d="M234 786q-27 0 -43 14.5t-16 41.5q0 29 16 44.5t43 15.5q26 0 42 -15.5t16 -45.5q0 -26 -16 -40.5t-42 -14.5zM51 786q-27 0 -43 14.5t-16 41.5q0 29 16 44.5t43 15.5q26 0 42 -15.5t16 -45.5q0 -26 -16 -40.5t-42 -14.5zM95 0v696h96v-696h-96z" />
    <glyph glyph-name="Itilde.i" horiz-adv-x="285" 
d="M210 782q-44 0 -82 51q-3 4 -10.5 14.5t-11 14.5t-9.5 10t-11.5 8.5t-11.5 2.5q-36 0 -35 -82v-10h-74v13q0 67 29.5 109t81.5 42q21 0 38 -8t26 -17.5t22 -25.5q12 -18 25.5 -33.5t25.5 -15.5q36 0 36 81v10h73v-13q0 -68 -29.5 -109.5t-82.5 -41.5zM95 0v696h96v-696
h-96z" />
    <glyph glyph-name="Imacron.i" horiz-adv-x="285" 
d="M-14 818v75h315v-75h-315zM95 0v696h96v-696h-96z" />
    <glyph glyph-name="Ibreve.i" horiz-adv-x="285" 
d="M143 776q-84 0 -131 43.5t-48 132.5h80q1 -62 24 -87.5t75 -25.5t75.5 25.5t24.5 87.5h79q-1 -90 -47.5 -133t-131.5 -43zM95 0v696h96v-696h-96z" />
    <glyph glyph-name="Iogonek.i" horiz-adv-x="285" 
d="M257 -180q-45 -9 -85 -9q-56 0 -91.5 26.5t-35.5 71.5q0 57 50 100v687h96v-696h-42q-34 -33 -34 -69q0 -52 72 -52q32 0 70 9v-68z" />
    <glyph glyph-name="Idotaccent.i" horiz-adv-x="285" 
d="M142 786q-29 0 -46 14.5t-17 41.5q0 29 17 44.5t46 15.5q63 0 63 -61q0 -26 -17 -40.5t-46 -14.5zM95 0v696h96v-696h-96z" />
    <glyph glyph-name="IJ.i" horiz-adv-x="831" 
d="M95 0v696h96v-696h-96zM529 -9q-99 0 -158 57.5t-66 166.5l93 15q8 -82 38 -119.5t93 -37.5q65 0 97 41t32 114v468h96v-469q0 -107 -59 -171.5t-166 -64.5z" />
    <glyph glyph-name="a.t" horiz-adv-x="524" 
d="M227 64q73 0 125 55v109h-118q-90 0 -90 -80q0 -39 21.5 -61.5t61.5 -22.5zM368 0q-8 21 -10 55q-62 -64 -159 -64q-65 0 -106.5 41t-41.5 110q0 72 46.5 113t127.5 41h126v58q0 49 -26.5 76t-76.5 27q-45 0 -73 -19.5t-46 -63.5l-73 39q52 119 199 119q84 0 137 -45
t53 -124v-273q0 -50 10 -90h-87z" />
    <glyph glyph-name="agrave.t" horiz-adv-x="524" 
d="M254 598q-84 76 -153 165h123q31 -66 96 -165h-66zM227 64q73 0 125 55v109h-118q-90 0 -90 -80q0 -39 21.5 -61.5t61.5 -22.5zM368 0q-8 21 -10 55q-62 -64 -159 -64q-65 0 -106.5 41t-41.5 110q0 72 46.5 113t127.5 41h126v58q0 49 -26.5 76t-76.5 27q-45 0 -73 -19.5
t-46 -63.5l-73 39q52 119 199 119q84 0 137 -45t53 -124v-273q0 -50 10 -90h-87z" />
    <glyph glyph-name="aacute.t" horiz-adv-x="524" 
d="M180 598q63 94 95 165h128q-70 -90 -152 -165h-71zM227 64q73 0 125 55v109h-118q-90 0 -90 -80q0 -39 21.5 -61.5t61.5 -22.5zM368 0q-8 21 -10 55q-62 -64 -159 -64q-65 0 -106.5 41t-41.5 110q0 72 46.5 113t127.5 41h126v58q0 49 -26.5 76t-76.5 27q-45 0 -73 -19.5
t-46 -63.5l-73 39q52 119 199 119q84 0 137 -45t53 -124v-273q0 -50 10 -90h-87z" />
    <glyph glyph-name="acircumflex.t" horiz-adv-x="524" 
d="M115 604l-38 44q77 60 143 131h77q71 -76 144 -131l-38 -44q-75 41 -145 96q-69 -56 -143 -96zM227 64q73 0 125 55v109h-118q-90 0 -90 -80q0 -39 21.5 -61.5t61.5 -22.5zM368 0q-8 21 -10 55q-62 -64 -159 -64q-65 0 -106.5 41t-41.5 110q0 72 46.5 113t127.5 41h126
v58q0 49 -26.5 76t-76.5 27q-45 0 -73 -19.5t-46 -63.5l-73 39q52 119 199 119q84 0 137 -45t53 -124v-273q0 -50 10 -90h-87z" />
    <glyph glyph-name="atilde.t" horiz-adv-x="524" 
d="M324 608q-45 0 -82 52l-10.5 14t-11 14t-10 10t-11.5 8.5t-11 2.5q-37 0 -36 -82v-10h-73v13q0 67 29.5 109.5t81.5 42.5q21 0 38 -8.5t26 -17.5t21 -25l10.5 -14t11 -14.5t9 -10.5t11 -8.5t10.5 -2.5q36 0 36 81v10h73v-13q0 -67 -30 -109t-82 -42zM227 64q73 0 125 55
v109h-118q-90 0 -90 -80q0 -39 21.5 -61.5t61.5 -22.5zM368 0q-8 21 -10 55q-62 -64 -159 -64q-65 0 -106.5 41t-41.5 110q0 72 46.5 113t127.5 41h126v58q0 49 -26.5 76t-76.5 27q-45 0 -73 -19.5t-46 -63.5l-73 39q52 119 199 119q84 0 137 -45t53 -124v-273q0 -50 10 -90
h-87z" />
    <glyph glyph-name="adieresis.t" horiz-adv-x="524" 
d="M354 612q-27 0 -43 14.5t-16 42.5q0 29 16 44.5t43 15.5q26 0 42 -16t16 -45q0 -27 -16 -41.5t-42 -14.5zM171 612q-27 0 -43 14.5t-16 42.5q0 29 16 44.5t43 15.5q26 0 42 -16t16 -45q0 -27 -16 -41.5t-42 -14.5zM227 64q73 0 125 55v109h-118q-90 0 -90 -80
q0 -39 21.5 -61.5t61.5 -22.5zM368 0q-8 21 -10 55q-62 -64 -159 -64q-65 0 -106.5 41t-41.5 110q0 72 46.5 113t127.5 41h126v58q0 49 -26.5 76t-76.5 27q-45 0 -73 -19.5t-46 -63.5l-73 39q52 119 199 119q84 0 137 -45t53 -124v-273q0 -50 10 -90h-87z" />
    <glyph glyph-name="aring.t" horiz-adv-x="524" 
d="M252 592q-63 0 -99.5 35t-36.5 100q0 64 37 100t99 36t99 -36t37 -100q0 -65 -36.5 -100t-99.5 -35zM252 649q67 0 67 78q0 37 -17 58t-50 21q-67 0 -67 -79q0 -78 67 -78zM227 64q73 0 125 55v109h-118q-90 0 -90 -80q0 -39 21.5 -61.5t61.5 -22.5zM368 0q-8 21 -10 55
q-62 -64 -159 -64q-65 0 -106.5 41t-41.5 110q0 72 46.5 113t127.5 41h126v58q0 49 -26.5 76t-76.5 27q-45 0 -73 -19.5t-46 -63.5l-73 39q52 119 199 119q84 0 137 -45t53 -124v-273q0 -50 10 -90h-87z" />
    <glyph glyph-name="amacron.t" horiz-adv-x="524" 
d="M111 645v76h315v-76h-315zM227 64q73 0 125 55v109h-118q-90 0 -90 -80q0 -39 21.5 -61.5t61.5 -22.5zM368 0q-8 21 -10 55q-62 -64 -159 -64q-65 0 -106.5 41t-41.5 110q0 72 46.5 113t127.5 41h126v58q0 49 -26.5 76t-76.5 27q-45 0 -73 -19.5t-46 -63.5l-73 39
q52 119 199 119q84 0 137 -45t53 -124v-273q0 -50 10 -90h-87z" />
    <glyph glyph-name="abreve.t" horiz-adv-x="524" 
d="M268 603q-84 0 -131 43t-48 132h80q1 -62 24 -87t75 -25t75.5 25t24.5 87h79q-1 -89 -47.5 -132t-131.5 -43zM227 64q73 0 125 55v109h-118q-90 0 -90 -80q0 -39 21.5 -61.5t61.5 -22.5zM368 0q-8 21 -10 55q-62 -64 -159 -64q-65 0 -106.5 41t-41.5 110q0 72 46.5 113
t127.5 41h126v58q0 49 -26.5 76t-76.5 27q-45 0 -73 -19.5t-46 -63.5l-73 39q52 119 199 119q84 0 137 -45t53 -124v-273q0 -50 10 -90h-87z" />
    <glyph glyph-name="aogonek.t" horiz-adv-x="524" 
d="M227 64q73 0 125 55v109h-118q-90 0 -90 -80q0 -39 21.5 -61.5t61.5 -22.5zM522 -180q-45 -9 -85 -9q-56 0 -91.5 26.5t-35.5 71.5q0 59 54 104q-6 24 -6 42q-62 -64 -159 -64q-65 0 -106.5 41t-41.5 110q0 72 46.5 113t127.5 41h126v58q0 49 -26.5 76t-76.5 27
q-45 0 -73 -19.5t-46 -63.5l-73 39q52 119 199 119q84 0 137 -45t53 -124v-273q0 -50 10 -90h-40q-35 -32 -35 -69q0 -52 72 -52q32 0 70 9v-68z" />
    <glyph glyph-name="aringacute.t" horiz-adv-x="524" 
d="M256 592q-63 0 -99.5 35t-36.5 100q0 53 25.5 87t71.5 45h-3q64 96 96 165h128q-67 -85 -151 -164q49 -8 77 -42.5t28 -90.5q0 -65 -36.5 -100t-99.5 -35zM256 649q67 0 67 78q0 37 -17 58t-50 21q-67 0 -67 -79q0 -78 67 -78zM227 64q73 0 125 55v109h-118
q-90 0 -90 -80q0 -39 21.5 -61.5t61.5 -22.5zM368 0q-8 21 -10 55q-62 -64 -159 -64q-65 0 -106.5 41t-41.5 110q0 72 46.5 113t127.5 41h126v58q0 49 -26.5 76t-76.5 27q-45 0 -73 -19.5t-46 -63.5l-73 39q52 119 199 119q84 0 137 -45t53 -124v-273q0 -50 10 -90h-87z" />
    <glyph glyph-name="a.ssa" horiz-adv-x="567" 
d="M274 453q-125 -2 -125 -197q0 -100 30.5 -141t84.5 -41q72 0 122 75v270q-47 33 -112 34zM260 532q71 0 130 -33v23h93v-522h-97v83q-61 -92 -153 -92q-82 0 -131 67t-49 198q0 135 58 205.5t149 70.5z" />
    <glyph glyph-name="agrave.ssa" horiz-adv-x="567" 
d="M254 598q-84 76 -153 165h123q31 -66 96 -165h-66zM274 453q-125 -2 -125 -197q0 -100 30.5 -141t84.5 -41q72 0 122 75v270q-47 33 -112 34zM260 532q71 0 130 -33v23h93v-522h-97v83q-61 -92 -153 -92q-82 0 -131 67t-49 198q0 135 58 205.5t149 70.5z" />
    <glyph glyph-name="aacute.ssa" horiz-adv-x="567" 
d="M180 598q63 94 95 165h128q-70 -90 -152 -165h-71zM274 453q-125 -2 -125 -197q0 -100 30.5 -141t84.5 -41q72 0 122 75v270q-47 33 -112 34zM260 532q71 0 130 -33v23h93v-522h-97v83q-61 -92 -153 -92q-82 0 -131 67t-49 198q0 135 58 205.5t149 70.5z" />
    <glyph glyph-name="acircumflex.ssa" horiz-adv-x="567" 
d="M115 604l-38 44q77 60 143 131h77q71 -76 144 -131l-38 -44q-75 41 -145 96q-69 -56 -143 -96zM274 453q-125 -2 -125 -197q0 -100 30.5 -141t84.5 -41q72 0 122 75v270q-47 33 -112 34zM260 532q71 0 130 -33v23h93v-522h-97v83q-61 -92 -153 -92q-82 0 -131 67t-49 198
q0 135 58 205.5t149 70.5z" />
    <glyph glyph-name="atilde.ssa" horiz-adv-x="567" 
d="M324 608q-45 0 -82 52l-10.5 14t-11 14t-10 10t-11.5 8.5t-11 2.5q-37 0 -36 -82v-10h-73v13q0 67 29.5 109.5t81.5 42.5q21 0 38 -8.5t26 -17.5t21 -25l10.5 -14t11 -14.5t9 -10.5t11 -8.5t10.5 -2.5q36 0 36 81v10h73v-13q0 -67 -30 -109t-82 -42zM274 453
q-125 -2 -125 -197q0 -100 30.5 -141t84.5 -41q72 0 122 75v270q-47 33 -112 34zM260 532q71 0 130 -33v23h93v-522h-97v83q-61 -92 -153 -92q-82 0 -131 67t-49 198q0 135 58 205.5t149 70.5z" />
    <glyph glyph-name="adieresis.ssa" horiz-adv-x="567" 
d="M348 612q-27 0 -43 14.5t-16 42.5q0 29 16 44.5t43 15.5q26 0 41.5 -16t15.5 -45q0 -27 -15.5 -41.5t-41.5 -14.5zM165 612q-27 0 -43 14.5t-16 42.5q0 29 16 44.5t43 15.5q26 0 42 -16t16 -45q0 -27 -16 -41.5t-42 -14.5zM274 453q-125 -2 -125 -197q0 -100 30.5 -141
t84.5 -41q72 0 122 75v270q-47 33 -112 34zM260 532q71 0 130 -33v23h93v-522h-97v83q-61 -92 -153 -92q-82 0 -131 67t-49 198q0 135 58 205.5t149 70.5z" />
    <glyph glyph-name="aring.ssa" horiz-adv-x="567" 
d="M252 592q-63 0 -99.5 35t-36.5 100q0 64 37 100t99 36t99 -36t37 -100q0 -65 -36.5 -100t-99.5 -35zM252 649q67 0 67 78q0 37 -17 58t-50 21q-67 0 -67 -79q0 -78 67 -78zM274 453q-125 -2 -125 -197q0 -100 30.5 -141t84.5 -41q72 0 122 75v270q-47 33 -112 34z
M260 532q71 0 130 -33v23h93v-522h-97v83q-61 -92 -153 -92q-82 0 -131 67t-49 198q0 135 58 205.5t149 70.5z" />
    <glyph glyph-name="amacron.ssa" horiz-adv-x="567" 
d="M111 645v76h315v-76h-315zM274 453q-125 -2 -125 -197q0 -100 30.5 -141t84.5 -41q72 0 122 75v270q-47 33 -112 34zM260 532q71 0 130 -33v23h93v-522h-97v83q-61 -92 -153 -92q-82 0 -131 67t-49 198q0 135 58 205.5t149 70.5z" />
    <glyph glyph-name="abreve.ssa" horiz-adv-x="567" 
d="M268 603q-84 0 -131 43t-48 132h80q1 -62 24 -87t75 -25t75.5 25t24.5 87h79q-1 -89 -47.5 -132t-131.5 -43zM274 453q-125 -2 -125 -197q0 -100 30.5 -141t84.5 -41q72 0 122 75v270q-47 33 -112 34zM260 532q71 0 130 -33v23h93v-522h-97v83q-61 -92 -153 -92
q-82 0 -131 67t-49 198q0 135 58 205.5t149 70.5z" />
    <glyph glyph-name="aogonek.ssa" horiz-adv-x="567" 
d="M274 453q-125 -2 -125 -197q0 -100 30.5 -141t84.5 -41q72 0 122 75v270q-47 33 -112 34zM546 -180q-47 -9 -86 -9q-56 0 -91.5 26.5t-35.5 71.5q0 57 53 103v71q-61 -92 -153 -92q-82 0 -131 67t-49 198q0 135 58 205.5t149 70.5q71 0 130 -33v23h93v-522h-45
q-35 -34 -35 -69q0 -52 73 -52q30 0 70 9v-68z" />
    <glyph glyph-name="aringacute.ssa" horiz-adv-x="567" 
d="M256 592q-63 0 -99.5 35t-36.5 100q0 53 25.5 87t71.5 45h-3q64 96 96 165h128q-67 -85 -151 -164q49 -8 77 -42.5t28 -90.5q0 -65 -36.5 -100t-99.5 -35zM256 649q67 0 67 78q0 37 -17 58t-50 21q-67 0 -67 -79q0 -78 67 -78zM274 453q-125 -2 -125 -197
q0 -100 30.5 -141t84.5 -41q72 0 122 75v270q-47 33 -112 34zM260 532q71 0 130 -33v23h93v-522h-97v83q-61 -92 -153 -92q-82 0 -131 67t-49 198q0 135 58 205.5t149 70.5z" />
    <glyph glyph-name="a.t_c" horiz-adv-x="530" 
d="M237 64q47 0 84 24t37 75v69h-124q-39 0 -65.5 -20t-26.5 -59q0 -41 25 -65t70 -24zM374 0q-10 27 -10 61q-43 -70 -151 -70q-70 0 -117 43.5t-47 113.5q0 71 48.5 111t127.5 40h132v47q0 53 -27.5 82t-77.5 29q-98 0 -108 -84h-85q8 73 59 116t137 43t141 -49.5
t55 -132.5v-260q0 -50 10 -90h-87z" />
    <glyph glyph-name="agrave.t_c" horiz-adv-x="530" 
d="M254 598q-84 76 -153 165h123q31 -66 96 -165h-66zM237 64q47 0 84 24t37 75v69h-124q-39 0 -65.5 -20t-26.5 -59q0 -41 25 -65t70 -24zM374 0q-10 27 -10 61q-43 -70 -151 -70q-70 0 -117 43.5t-47 113.5q0 71 48.5 111t127.5 40h132v47q0 53 -27.5 82t-77.5 29
q-98 0 -108 -84h-85q8 73 59 116t137 43t141 -49.5t55 -132.5v-260q0 -50 10 -90h-87z" />
    <glyph glyph-name="aacute.t_c" horiz-adv-x="530" 
d="M180 598q63 94 95 165h128q-70 -90 -152 -165h-71zM237 64q47 0 84 24t37 75v69h-124q-39 0 -65.5 -20t-26.5 -59q0 -41 25 -65t70 -24zM374 0q-10 27 -10 61q-43 -70 -151 -70q-70 0 -117 43.5t-47 113.5q0 71 48.5 111t127.5 40h132v47q0 53 -27.5 82t-77.5 29
q-98 0 -108 -84h-85q8 73 59 116t137 43t141 -49.5t55 -132.5v-260q0 -50 10 -90h-87z" />
    <glyph glyph-name="acircumflex.t_c" horiz-adv-x="530" 
d="M115 604l-38 44q77 60 143 131h77q71 -76 144 -131l-38 -44q-75 41 -145 96q-69 -56 -143 -96zM237 64q47 0 84 24t37 75v69h-124q-39 0 -65.5 -20t-26.5 -59q0 -41 25 -65t70 -24zM374 0q-10 27 -10 61q-43 -70 -151 -70q-70 0 -117 43.5t-47 113.5q0 71 48.5 111
t127.5 40h132v47q0 53 -27.5 82t-77.5 29q-98 0 -108 -84h-85q8 73 59 116t137 43t141 -49.5t55 -132.5v-260q0 -50 10 -90h-87z" />
    <glyph glyph-name="atilde.t_c" horiz-adv-x="530" 
d="M324 608q-45 0 -82 52l-10.5 14t-11 14t-10 10t-11.5 8.5t-11 2.5q-37 0 -36 -82v-10h-73v13q0 67 29.5 109.5t81.5 42.5q21 0 38 -8.5t26 -17.5t21 -25l10.5 -14t11 -14.5t9 -10.5t11 -8.5t10.5 -2.5q36 0 36 81v10h73v-13q0 -67 -30 -109t-82 -42zM237 64q47 0 84 24
t37 75v69h-124q-39 0 -65.5 -20t-26.5 -59q0 -41 25 -65t70 -24zM374 0q-10 27 -10 61q-43 -70 -151 -70q-70 0 -117 43.5t-47 113.5q0 71 48.5 111t127.5 40h132v47q0 53 -27.5 82t-77.5 29q-98 0 -108 -84h-85q8 73 59 116t137 43t141 -49.5t55 -132.5v-260q0 -50 10 -90
h-87z" />
    <glyph glyph-name="adieresis.t_c" horiz-adv-x="530" 
d="M348 612q-27 0 -43 14.5t-16 42.5q0 29 16 44.5t43 15.5q26 0 41.5 -16t15.5 -45q0 -27 -15.5 -41.5t-41.5 -14.5zM165 612q-27 0 -43 14.5t-16 42.5q0 29 16 44.5t43 15.5q26 0 42 -16t16 -45q0 -27 -16 -41.5t-42 -14.5zM237 64q47 0 84 24t37 75v69h-124
q-39 0 -65.5 -20t-26.5 -59q0 -41 25 -65t70 -24zM374 0q-10 27 -10 61q-43 -70 -151 -70q-70 0 -117 43.5t-47 113.5q0 71 48.5 111t127.5 40h132v47q0 53 -27.5 82t-77.5 29q-98 0 -108 -84h-85q8 73 59 116t137 43t141 -49.5t55 -132.5v-260q0 -50 10 -90h-87z" />
    <glyph glyph-name="aring.t_c" horiz-adv-x="530" 
d="M252 592q-63 0 -99.5 35t-36.5 100q0 64 37 100t99 36t99 -36t37 -100q0 -65 -36.5 -100t-99.5 -35zM252 649q67 0 67 78q0 37 -17 58t-50 21q-67 0 -67 -79q0 -78 67 -78zM237 64q47 0 84 24t37 75v69h-124q-39 0 -65.5 -20t-26.5 -59q0 -41 25 -65t70 -24zM374 0
q-10 27 -10 61q-43 -70 -151 -70q-70 0 -117 43.5t-47 113.5q0 71 48.5 111t127.5 40h132v47q0 53 -27.5 82t-77.5 29q-98 0 -108 -84h-85q8 73 59 116t137 43t141 -49.5t55 -132.5v-260q0 -50 10 -90h-87z" />
    <glyph glyph-name="amacron.t_c" horiz-adv-x="530" 
d="M111 645v76h315v-76h-315zM237 64q47 0 84 24t37 75v69h-124q-39 0 -65.5 -20t-26.5 -59q0 -41 25 -65t70 -24zM374 0q-10 27 -10 61q-43 -70 -151 -70q-70 0 -117 43.5t-47 113.5q0 71 48.5 111t127.5 40h132v47q0 53 -27.5 82t-77.5 29q-98 0 -108 -84h-85q8 73 59 116
t137 43t141 -49.5t55 -132.5v-260q0 -50 10 -90h-87z" />
    <glyph glyph-name="abreve.t_c" horiz-adv-x="530" 
d="M268 603q-84 0 -131 43t-48 132h80q1 -62 24 -87t75 -25t75.5 25t24.5 87h79q-1 -89 -47.5 -132t-131.5 -43zM237 64q47 0 84 24t37 75v69h-124q-39 0 -65.5 -20t-26.5 -59q0 -41 25 -65t70 -24zM374 0q-10 27 -10 61q-43 -70 -151 -70q-70 0 -117 43.5t-47 113.5
q0 71 48.5 111t127.5 40h132v47q0 53 -27.5 82t-77.5 29q-98 0 -108 -84h-85q8 73 59 116t137 43t141 -49.5t55 -132.5v-260q0 -50 10 -90h-87z" />
    <glyph glyph-name="aogonek.t_c" horiz-adv-x="530" 
d="M237 64q47 0 84 24t37 75v69h-124q-39 0 -65.5 -20t-26.5 -59q0 -41 25 -65t70 -24zM525 -180q-45 -9 -85 -9q-56 0 -91.5 26.5t-35.5 71.5q0 61 56 106q-5 23 -5 46q-43 -70 -151 -70q-70 0 -117 43.5t-47 113.5q0 71 48.5 111t127.5 40h132v47q0 53 -27.5 82t-77.5 29
q-98 0 -108 -84h-85q8 73 59 116t137 43t141 -49.5t55 -132.5v-260q0 -50 10 -90h-43q-35 -34 -35 -69q0 -52 72 -52q32 0 70 9v-68z" />
    <glyph glyph-name="aringacute.t_c" horiz-adv-x="530" 
d="M256 592q-63 0 -99.5 35t-36.5 100q0 53 25.5 87t71.5 45h-3q64 96 96 165h128q-67 -85 -151 -164q49 -8 77 -42.5t28 -90.5q0 -65 -36.5 -100t-99.5 -35zM256 649q67 0 67 78q0 37 -17 58t-50 21q-67 0 -67 -79q0 -78 67 -78zM237 64q47 0 84 24t37 75v69h-124
q-39 0 -65.5 -20t-26.5 -59q0 -41 25 -65t70 -24zM374 0q-10 27 -10 61q-43 -70 -151 -70q-70 0 -117 43.5t-47 113.5q0 71 48.5 111t127.5 40h132v47q0 53 -27.5 82t-77.5 29q-98 0 -108 -84h-85q8 73 59 116t137 43t141 -49.5t55 -132.5v-260q0 -50 10 -90h-87z" />
    <glyph glyph-name="a.t_o" horiz-adv-x="514" 
d="M218 64q75 0 123 55v119h-118q-37 0 -61.5 -19t-24.5 -59q0 -96 81 -96zM358 0q-10 25 -10 57q-64 -66 -157 -66q-64 0 -105.5 41.5t-41.5 114.5q0 75 46.5 117t123.5 42h127v43q0 47 -28.5 76.5t-82.5 29.5q-44 0 -76 -12t-68 -39v86q62 42 154 42q87 0 141 -45.5
t54 -128.5v-268q0 -42 10 -90h-87z" />
    <glyph glyph-name="agrave.t_o" horiz-adv-x="514" 
d="M254 598q-84 76 -153 165h123q31 -66 96 -165h-66zM218 64q75 0 123 55v119h-118q-37 0 -61.5 -19t-24.5 -59q0 -96 81 -96zM358 0q-10 25 -10 57q-64 -66 -157 -66q-64 0 -105.5 41.5t-41.5 114.5q0 75 46.5 117t123.5 42h127v43q0 47 -28.5 76.5t-82.5 29.5
q-44 0 -76 -12t-68 -39v86q62 42 154 42q87 0 141 -45.5t54 -128.5v-268q0 -42 10 -90h-87z" />
    <glyph glyph-name="aacute.t_o" horiz-adv-x="514" 
d="M180 598q63 94 95 165h128q-70 -90 -152 -165h-71zM218 64q75 0 123 55v119h-118q-37 0 -61.5 -19t-24.5 -59q0 -96 81 -96zM358 0q-10 25 -10 57q-64 -66 -157 -66q-64 0 -105.5 41.5t-41.5 114.5q0 75 46.5 117t123.5 42h127v43q0 47 -28.5 76.5t-82.5 29.5
q-44 0 -76 -12t-68 -39v86q62 42 154 42q87 0 141 -45.5t54 -128.5v-268q0 -42 10 -90h-87z" />
    <glyph glyph-name="acircumflex.t_o" horiz-adv-x="514" 
d="M115 604l-38 44q77 60 143 131h77q71 -76 144 -131l-38 -44q-75 41 -145 96q-69 -56 -143 -96zM218 64q75 0 123 55v119h-118q-37 0 -61.5 -19t-24.5 -59q0 -96 81 -96zM358 0q-10 25 -10 57q-64 -66 -157 -66q-64 0 -105.5 41.5t-41.5 114.5q0 75 46.5 117t123.5 42h127
v43q0 47 -28.5 76.5t-82.5 29.5q-44 0 -76 -12t-68 -39v86q62 42 154 42q87 0 141 -45.5t54 -128.5v-268q0 -42 10 -90h-87z" />
    <glyph glyph-name="atilde.t_o" horiz-adv-x="514" 
d="M324 608q-45 0 -82 52l-10.5 14t-11 14t-10 10t-11.5 8.5t-11 2.5q-37 0 -36 -82v-10h-73v13q0 67 29.5 109.5t81.5 42.5q21 0 38 -8.5t26 -17.5t21 -25l10.5 -14t11 -14.5t9 -10.5t11 -8.5t10.5 -2.5q36 0 36 81v10h73v-13q0 -67 -30 -109t-82 -42zM218 64q75 0 123 55
v119h-118q-37 0 -61.5 -19t-24.5 -59q0 -96 81 -96zM358 0q-10 25 -10 57q-64 -66 -157 -66q-64 0 -105.5 41.5t-41.5 114.5q0 75 46.5 117t123.5 42h127v43q0 47 -28.5 76.5t-82.5 29.5q-44 0 -76 -12t-68 -39v86q62 42 154 42q87 0 141 -45.5t54 -128.5v-268q0 -42 10 -90
h-87z" />
    <glyph glyph-name="adieresis.t_o" horiz-adv-x="514" 
d="M348 612q-27 0 -43 14.5t-16 42.5q0 29 16 44.5t43 15.5q26 0 41.5 -16t15.5 -45q0 -27 -15.5 -41.5t-41.5 -14.5zM165 612q-27 0 -43 14.5t-16 42.5q0 29 16 44.5t43 15.5q26 0 42 -16t16 -45q0 -27 -16 -41.5t-42 -14.5zM218 64q75 0 123 55v119h-118q-37 0 -61.5 -19
t-24.5 -59q0 -96 81 -96zM358 0q-10 25 -10 57q-64 -66 -157 -66q-64 0 -105.5 41.5t-41.5 114.5q0 75 46.5 117t123.5 42h127v43q0 47 -28.5 76.5t-82.5 29.5q-44 0 -76 -12t-68 -39v86q62 42 154 42q87 0 141 -45.5t54 -128.5v-268q0 -42 10 -90h-87z" />
    <glyph glyph-name="aring.t_o" horiz-adv-x="514" 
d="M252 592q-63 0 -99.5 35t-36.5 100q0 64 37 100t99 36t99 -36t37 -100q0 -65 -36.5 -100t-99.5 -35zM252 649q67 0 67 78q0 37 -17 58t-50 21q-67 0 -67 -79q0 -78 67 -78zM218 64q75 0 123 55v119h-118q-37 0 -61.5 -19t-24.5 -59q0 -96 81 -96zM358 0q-10 25 -10 57
q-64 -66 -157 -66q-64 0 -105.5 41.5t-41.5 114.5q0 75 46.5 117t123.5 42h127v43q0 47 -28.5 76.5t-82.5 29.5q-44 0 -76 -12t-68 -39v86q62 42 154 42q87 0 141 -45.5t54 -128.5v-268q0 -42 10 -90h-87z" />
    <glyph glyph-name="amacron.t_o" horiz-adv-x="514" 
d="M111 645v76h315v-76h-315zM218 64q75 0 123 55v119h-118q-37 0 -61.5 -19t-24.5 -59q0 -96 81 -96zM358 0q-10 25 -10 57q-64 -66 -157 -66q-64 0 -105.5 41.5t-41.5 114.5q0 75 46.5 117t123.5 42h127v43q0 47 -28.5 76.5t-82.5 29.5q-44 0 -76 -12t-68 -39v86
q62 42 154 42q87 0 141 -45.5t54 -128.5v-268q0 -42 10 -90h-87z" />
    <glyph glyph-name="abreve.t_o" horiz-adv-x="514" 
d="M268 603q-84 0 -131 43t-48 132h80q1 -62 24 -87t75 -25t75.5 25t24.5 87h79q-1 -89 -47.5 -132t-131.5 -43zM218 64q75 0 123 55v119h-118q-37 0 -61.5 -19t-24.5 -59q0 -96 81 -96zM358 0q-10 25 -10 57q-64 -66 -157 -66q-64 0 -105.5 41.5t-41.5 114.5q0 75 46.5 117
t123.5 42h127v43q0 47 -28.5 76.5t-82.5 29.5q-44 0 -76 -12t-68 -39v86q62 42 154 42q87 0 141 -45.5t54 -128.5v-268q0 -42 10 -90h-87z" />
    <glyph glyph-name="aogonek.t_o" horiz-adv-x="514" 
d="M218 64q75 0 123 55v119h-118q-37 0 -61.5 -19t-24.5 -59q0 -96 81 -96zM505 -180q-45 -9 -85 -9q-56 0 -91.5 26.5t-35.5 71.5q0 63 60 109q-5 18 -5 39q-64 -66 -157 -66q-64 0 -105.5 41.5t-41.5 114.5q0 75 46.5 117t123.5 42h127v43q0 47 -28.5 76.5t-82.5 29.5
q-44 0 -76 -12t-68 -39v86q62 42 154 42q87 0 141 -45.5t54 -128.5v-268q0 -42 10 -90h-48q-34 -33 -34 -69q0 -52 72 -52q32 0 70 9v-68z" />
    <glyph glyph-name="aringacute.t_o" horiz-adv-x="514" 
d="M256 592q-63 0 -99.5 35t-36.5 100q0 53 25.5 87t71.5 45h-3q64 96 96 165h128q-67 -85 -151 -164q49 -8 77 -42.5t28 -90.5q0 -65 -36.5 -100t-99.5 -35zM256 649q67 0 67 78q0 37 -17 58t-50 21q-67 0 -67 -79q0 -78 67 -78zM218 64q75 0 123 55v119h-118
q-37 0 -61.5 -19t-24.5 -59q0 -96 81 -96zM358 0q-10 25 -10 57q-64 -66 -157 -66q-64 0 -105.5 41.5t-41.5 114.5q0 75 46.5 117t123.5 42h127v43q0 47 -28.5 76.5t-82.5 29.5q-44 0 -76 -12t-68 -39v86q62 42 154 42q87 0 141 -45.5t54 -128.5v-268q0 -42 10 -90h-87z" />
    <glyph glyph-name="b.copy_1" horiz-adv-x="572" 
d="M283 -9q-110 0 -200 54v671h97v-273q24 40 63.5 64.5t90.5 24.5q82 0 131 -68t49 -197q0 -138 -63.5 -207t-167.5 -69zM287 69q130 0 130 196q0 183 -113 183q-70 0 -124 -72v-284q45 -23 107 -23z" />
    <glyph glyph-name="q.copy_1" horiz-adv-x="572" 
d="M290 532q107 0 198 -53v-653h-97v253q-53 -88 -153 -88q-82 0 -131 67.5t-49 196.5q0 138 64 207.5t168 69.5zM287 453q-133 0 -133 -196q0 -183 115 -183q67 0 122 72v284q-43 23 -104 23z" />
    <glyph glyph-name="r.copy_1" horiz-adv-x="481" 
d="M181 0h-97v522h95v-86q53 96 138 96q59 0 92 -42.5t33 -109.5v-58h-87v45q0 81 -65 81q-62 0 -109 -82v-366z" />
    <glyph glyph-name="racute.copy_1" horiz-adv-x="481" 
d="M174 598q62 94 95 165h128q-70 -90 -152 -165h-71zM181 0h-97v522h95v-86q53 96 138 96q59 0 92 -42.5t33 -109.5v-58h-87v45q0 81 -65 81q-62 0 -109 -82v-366z" />
    <glyph glyph-name="rcommaaccent.copy_1" horiz-adv-x="481" 
d="M181 0h-97v522h95v-86q53 96 138 96q59 0 92 -42.5t33 -109.5v-58h-87v45q0 81 -65 81q-62 0 -109 -82v-366zM18 -251q39 87 63 174h125q-47 -86 -121 -174h-67z" />
    <glyph glyph-name="rcaron.copy_1" horiz-adv-x="481" 
d="M194 604q-73 77 -144 131l37 44q69 -39 146 -96q60 51 143 97l38 -45q-77 -57 -143 -131h-77zM181 0h-97v522h95v-86q53 96 138 96q59 0 92 -42.5t33 -109.5v-58h-87v45q0 81 -65 81q-62 0 -109 -82v-366z" />
    <glyph glyph-name="G.s" horiz-adv-x="654" 
d="M519 0l-8 88q-59 -97 -186 -97q-125 0 -195 90.5t-70 274.5q0 175 72 262t200 87q106 0 168.5 -50t76.5 -138l-93 -20q-23 128 -152 128q-85 0 -130 -63t-45 -206q0 -154 44 -219.5t128 -65.5q82 0 123.5 46t43.5 160h-171v81h263v-358h-69z" />
    <glyph glyph-name="Gcircumflex.s" horiz-adv-x="654" 
d="M186 777l-38 45q77 60 143 131h77q77 -80 144 -131l-37 -45q-83 45 -146 97q-58 -49 -143 -97zM519 0l-8 88q-59 -97 -186 -97q-125 0 -195 90.5t-70 274.5q0 175 72 262t200 87q106 0 168.5 -50t76.5 -138l-93 -20q-23 128 -152 128q-85 0 -130 -63t-45 -206
q0 -154 44 -219.5t128 -65.5q82 0 123.5 46t43.5 160h-171v81h263v-358h-69z" />
    <glyph glyph-name="Gbreve.s" horiz-adv-x="654" 
d="M330 776q-84 0 -131 43.5t-48 132.5h80q1 -62 24 -87.5t75 -25.5t75.5 25.5t24.5 87.5h79q-1 -90 -47.5 -133t-131.5 -43zM519 0l-8 88q-59 -97 -186 -97q-125 0 -195 90.5t-70 274.5q0 175 72 262t200 87q106 0 168.5 -50t76.5 -138l-93 -20q-23 128 -152 128
q-85 0 -130 -63t-45 -206q0 -154 44 -219.5t128 -65.5q82 0 123.5 46t43.5 160h-171v81h263v-358h-69z" />
    <glyph glyph-name="Gdotaccent.s" horiz-adv-x="654" 
d="M330 786q-29 0 -46 14.5t-17 41.5q0 29 17 44.5t46 15.5q63 0 63 -61q0 -26 -17 -40.5t-46 -14.5zM519 0l-8 88q-59 -97 -186 -97q-125 0 -195 90.5t-70 274.5q0 175 72 262t200 87q106 0 168.5 -50t76.5 -138l-93 -20q-23 128 -152 128q-85 0 -130 -63t-45 -206
q0 -154 44 -219.5t128 -65.5q82 0 123.5 46t43.5 160h-171v81h263v-358h-69z" />
    <glyph glyph-name="Gcommaaccent.s" horiz-adv-x="654" 
d="M519 0l-8 88q-59 -97 -186 -97q-125 0 -195 90.5t-70 274.5q0 175 72 262t200 87q106 0 168.5 -50t76.5 -138l-93 -20q-23 128 -152 128q-85 0 -130 -63t-45 -206q0 -154 44 -219.5t128 -65.5q82 0 123.5 46t43.5 160h-171v81h263v-358h-69zM228 -251q38 87 63 174h125
q-48 -85 -121 -174h-67z" />
    <glyph glyph-name="g.ssg" horiz-adv-x="567" 
d="M274 453q-125 -2 -125 -184q0 -93 30 -131t85 -38q73 0 122 75v244q-47 33 -112 34zM387 17v91q-60 -92 -154 -92q-82 0 -131 64t-49 188q0 129 58 196.5t149 67.5q70 0 128 -33v23h95v-509q0 -93 -62.5 -146t-155.5 -53q-109 0 -186 49l30 73q77 -45 157 -45
q53 0 87 30.5t34 95.5z" />
    <glyph glyph-name="gcircumflex.ssg" horiz-adv-x="567" 
d="M162 604l-38 44q79 62 142 131h77q74 -78 145 -131l-38 -44q-72 38 -145 96q-66 -54 -143 -96zM274 453q-125 -2 -125 -184q0 -93 30 -131t85 -38q73 0 122 75v244q-47 33 -112 34zM387 17v91q-60 -92 -154 -92q-82 0 -131 64t-49 188q0 129 58 196.5t149 67.5
q70 0 128 -33v23h95v-509q0 -93 -62.5 -146t-155.5 -53q-109 0 -186 49l30 73q77 -45 157 -45q53 0 87 30.5t34 95.5z" />
    <glyph glyph-name="gbreve.ssg" horiz-adv-x="567" 
d="M306 603q-85 0 -131.5 43t-47.5 132h79q1 -62 24.5 -87t75.5 -25t75 25t24 87h80q-1 -89 -47.5 -132t-131.5 -43zM274 453q-125 -2 -125 -184q0 -93 30 -131t85 -38q73 0 122 75v244q-47 33 -112 34zM387 17v91q-60 -92 -154 -92q-82 0 -131 64t-49 188q0 129 58 196.5
t149 67.5q70 0 128 -33v23h95v-509q0 -93 -62.5 -146t-155.5 -53q-109 0 -186 49l30 73q77 -45 157 -45q53 0 87 30.5t34 95.5z" />
    <glyph glyph-name="gdotaccent.ssg" horiz-adv-x="567" 
d="M306 612q-29 0 -46 14.5t-17 42.5q0 29 17 44.5t46 15.5t46 -16t17 -45q0 -27 -17.5 -41.5t-45.5 -14.5zM274 453q-125 -2 -125 -184q0 -93 30 -131t85 -38q73 0 122 75v244q-47 33 -112 34zM387 17v91q-60 -92 -154 -92q-82 0 -131 64t-49 188q0 129 58 196.5t149 67.5
q70 0 128 -33v23h95v-509q0 -93 -62.5 -146t-155.5 -53q-109 0 -186 49l30 73q77 -45 157 -45q53 0 87 30.5t34 95.5z" />
    <glyph glyph-name="gcommaaccent.ssg" horiz-adv-x="567" 
d="M237 600q51 91 121 173h67q-38 -83 -64 -173h-124zM274 453q-125 -2 -125 -184q0 -93 30 -131t85 -38q73 0 122 75v244q-47 33 -112 34zM387 17v91q-60 -92 -154 -92q-82 0 -131 64t-49 188q0 129 58 196.5t149 67.5q70 0 128 -33v23h95v-509q0 -93 -62.5 -146
t-155.5 -53q-109 0 -186 49l30 73q77 -45 157 -45q53 0 87 30.5t34 95.5z" />
    <glyph glyph-name="IJ.i_c" horiz-adv-x="828" 
d="M95 0v696h96v-696h-96zM526 -9q-98 0 -157.5 60.5t-66.5 175.5h96q7 -80 37.5 -117t93.5 -37q125 0 125 155v468h97v-469q0 -107 -59 -171.5t-166 -64.5z" />
    <glyph glyph-name="IJ.i_o" horiz-adv-x="751" 
d="M95 0v696h96v-696h-96zM449 -9q-87 0 -154 44v91q74 -53 154 -53q66 0 97 39t31 108v476h97v-478q0 -102 -59 -164.5t-166 -62.5z" />
    <glyph glyph-name="C.c" horiz-adv-x="633" 
d="M329 -9q-128 0 -198.5 90t-70.5 275q0 175 71 262t199 87q110 0 173.5 -59.5t75.5 -168.5h-95q-9 77 -46 112.5t-109 35.5q-84 0 -128 -63t-44 -206q0 -154 43.5 -219.5t128.5 -65.5q75 0 111.5 35.5t43.5 108.5l95 1q-9 -105 -73.5 -165t-176.5 -60z" />
    <glyph glyph-name="Ccedilla.c" horiz-adv-x="633" 
d="M335 -189q-87 0 -131 58l50 42q25 -40 79 -40t54 33q0 20 -18.5 29t-64.5 9v50q-117 9 -180.5 98.5t-63.5 265.5q0 175 71 262t199 87q110 0 173.5 -59.5t75.5 -168.5h-95q-9 77 -46 112.5t-109 35.5q-84 0 -128 -63t-44 -206q0 -154 43.5 -219.5t128.5 -65.5
q75 0 111.5 35.5t43.5 108.5l95 1q-8 -96 -63 -154.5t-150 -68.5v-15q46 -4 75 -25.5t29 -55.5q0 -42 -39.5 -64t-95.5 -22z" />
    <glyph glyph-name="Cacute.c" horiz-adv-x="633" 
d="M245 771q60 89 95 166h128q-69 -89 -152 -166h-71zM329 -9q-128 0 -198.5 90t-70.5 275q0 175 71 262t199 87q110 0 173.5 -59.5t75.5 -168.5h-95q-9 77 -46 112.5t-109 35.5q-84 0 -128 -63t-44 -206q0 -154 43.5 -219.5t128.5 -65.5q75 0 111.5 35.5t43.5 108.5l95 1
q-9 -105 -73.5 -165t-176.5 -60z" />
    <glyph glyph-name="Ccircumflex.c" horiz-adv-x="633" 
d="M189 777l-38 45q77 60 143 131h77q77 -80 144 -131l-37 -45q-83 45 -146 97q-58 -49 -143 -97zM329 -9q-128 0 -198.5 90t-70.5 275q0 175 71 262t199 87q110 0 173.5 -59.5t75.5 -168.5h-95q-9 77 -46 112.5t-109 35.5q-84 0 -128 -63t-44 -206q0 -154 43.5 -219.5
t128.5 -65.5q75 0 111.5 35.5t43.5 108.5l95 1q-9 -105 -73.5 -165t-176.5 -60z" />
    <glyph glyph-name="Cdotaccent.c" horiz-adv-x="633" 
d="M333 786q-29 0 -46 14.5t-17 41.5q0 29 17 44.5t46 15.5q63 0 63 -61q0 -26 -17 -40.5t-46 -14.5zM329 -9q-128 0 -198.5 90t-70.5 275q0 175 71 262t199 87q110 0 173.5 -59.5t75.5 -168.5h-95q-9 77 -46 112.5t-109 35.5q-84 0 -128 -63t-44 -206q0 -154 43.5 -219.5
t128.5 -65.5q75 0 111.5 35.5t43.5 108.5l95 1q-9 -105 -73.5 -165t-176.5 -60z" />
    <glyph glyph-name="Ccaron.c" horiz-adv-x="633" 
d="M296 777q-69 75 -145 132l38 44q71 -40 145 -96q68 55 144 97l37 -45q-75 -56 -142 -132h-77zM329 -9q-128 0 -198.5 90t-70.5 275q0 175 71 262t199 87q110 0 173.5 -59.5t75.5 -168.5h-95q-9 77 -46 112.5t-109 35.5q-84 0 -128 -63t-44 -206q0 -154 43.5 -219.5
t128.5 -65.5q75 0 111.5 35.5t43.5 108.5l95 1q-9 -105 -73.5 -165t-176.5 -60z" />
    <glyph glyph-name="G.c" horiz-adv-x="654" 
d="M519 0l-8 88q-59 -97 -186 -97q-125 0 -195 90.5t-70 274.5q0 175 71.5 262t198.5 87q109 0 173.5 -53.5t75.5 -152.5h-95q-8 65 -45.5 95.5t-110.5 30.5q-83 0 -127 -63t-44 -206q0 -154 44 -219.5t128 -65.5t125.5 47t41.5 161h-171v82h263v-361h-69z" />
    <glyph glyph-name="Gcircumflex.c" horiz-adv-x="654" 
d="M186 777l-38 45q77 60 143 131h77q77 -80 144 -131l-37 -45q-83 45 -146 97q-58 -49 -143 -97zM519 0l-8 88q-59 -97 -186 -97q-125 0 -195 90.5t-70 274.5q0 175 71.5 262t198.5 87q109 0 173.5 -53.5t75.5 -152.5h-95q-8 65 -45.5 95.5t-110.5 30.5q-83 0 -127 -63
t-44 -206q0 -154 44 -219.5t128 -65.5t125.5 47t41.5 161h-171v82h263v-361h-69z" />
    <glyph glyph-name="Gbreve.c" horiz-adv-x="654" 
d="M330 776q-84 0 -131 43.5t-48 132.5h80q1 -62 24 -87.5t75 -25.5t75.5 25.5t24.5 87.5h79q-1 -90 -47.5 -133t-131.5 -43zM519 0l-8 88q-59 -97 -186 -97q-125 0 -195 90.5t-70 274.5q0 175 71.5 262t198.5 87q109 0 173.5 -53.5t75.5 -152.5h-95q-8 65 -45.5 95.5
t-110.5 30.5q-83 0 -127 -63t-44 -206q0 -154 44 -219.5t128 -65.5t125.5 47t41.5 161h-171v82h263v-361h-69z" />
    <glyph glyph-name="Gdotaccent.c" horiz-adv-x="654" 
d="M330 786q-29 0 -46 14.5t-17 41.5q0 29 17 44.5t46 15.5q63 0 63 -61q0 -26 -17 -40.5t-46 -14.5zM519 0l-8 88q-59 -97 -186 -97q-125 0 -195 90.5t-70 274.5q0 175 71.5 262t198.5 87q109 0 173.5 -53.5t75.5 -152.5h-95q-8 65 -45.5 95.5t-110.5 30.5q-83 0 -127 -63
t-44 -206q0 -154 44 -219.5t128 -65.5t125.5 47t41.5 161h-171v82h263v-361h-69z" />
    <glyph glyph-name="Gcommaaccent.c" horiz-adv-x="654" 
d="M519 0l-8 88q-59 -97 -186 -97q-125 0 -195 90.5t-70 274.5q0 175 71.5 262t198.5 87q109 0 173.5 -53.5t75.5 -152.5h-95q-8 65 -45.5 95.5t-110.5 30.5q-83 0 -127 -63t-44 -206q0 -154 44 -219.5t128 -65.5t125.5 47t41.5 161h-171v82h263v-361h-69zM228 -251
q38 87 63 174h125q-48 -85 -121 -174h-67z" />
    <glyph glyph-name="J.c" horiz-adv-x="555" 
d="M252 -9q-98 0 -157.5 60.5t-67.5 175.5h97q6 -80 37 -117t94 -37t94 41t31 114v468h97v-469q0 -107 -59 -171.5t-166 -64.5z" />
    <glyph glyph-name="Jcircumflex.c" horiz-adv-x="555" 
d="M269 777l-37 45q73 57 142 131h77q74 -78 145 -131l-38 -45q-84 46 -145 97q-60 -50 -144 -97zM252 -9q-98 0 -157.5 60.5t-67.5 175.5h97q6 -80 37 -117t94 -37t94 41t31 114v468h97v-469q0 -107 -59 -171.5t-166 -64.5z" />
    <glyph glyph-name="Q.c" horiz-adv-x="664" 
d="M519 -69l-74 83q-51 -21 -114 -21q-128 0 -199.5 89t-71.5 274q0 176 72.5 262.5t199.5 86.5q128 0 200.5 -86.5t72.5 -262.5q0 -194 -83 -287l64 -72zM331 71q34 0 57 8l-69 76l67 63l76 -84q45 70 45 222q0 144 -44.5 206.5t-131.5 62.5q-86 0 -130 -62.5t-44 -206.5
q0 -156 44 -220.5t130 -64.5z" />
    <glyph glyph-name="S.c" horiz-adv-x="613" 
d="M317 73q67 0 106.5 29.5t39.5 83.5q0 52 -39 80t-126 42q-117 18 -172.5 66.5t-55.5 134.5t61.5 139t165.5 53q101 0 167.5 -53t78.5 -152h-99q-18 125 -148 125t-130 -104q0 -51 36 -79t124 -41q120 -17 176.5 -67.5t56.5 -136.5q0 -88 -67.5 -143.5t-174.5 -55.5
q-111 -1 -182.5 55.5t-80.5 160.5h97q18 -137 166 -137z" />
    <glyph glyph-name="Sacute.c" horiz-adv-x="613" 
d="M240 771q64 97 95 166h128q-69 -89 -152 -166h-71zM317 73q67 0 106.5 29.5t39.5 83.5q0 52 -39 80t-126 42q-117 18 -172.5 66.5t-55.5 134.5t61.5 139t165.5 53q101 0 167.5 -53t78.5 -152h-99q-18 125 -148 125t-130 -104q0 -51 36 -79t124 -41q120 -17 176.5 -67.5
t56.5 -136.5q0 -88 -67.5 -143.5t-174.5 -55.5q-111 -1 -182.5 55.5t-80.5 160.5h97q18 -137 166 -137z" />
    <glyph glyph-name="Scircumflex.c" horiz-adv-x="613" 
d="M176 777l-38 45q79 62 142 131h78q71 -76 144 -131l-38 -45q-83 46 -145 97q-62 -52 -143 -97zM317 73q67 0 106.5 29.5t39.5 83.5q0 52 -39 80t-126 42q-117 18 -172.5 66.5t-55.5 134.5t61.5 139t165.5 53q101 0 167.5 -53t78.5 -152h-99q-18 125 -148 125t-130 -104
q0 -51 36 -79t124 -41q120 -17 176.5 -67.5t56.5 -136.5q0 -88 -67.5 -143.5t-174.5 -55.5q-111 -1 -182.5 55.5t-80.5 160.5h97q18 -137 166 -137z" />
    <glyph glyph-name="Scedilla.c" horiz-adv-x="613" 
d="M317 -189q-89 0 -131 58l50 42q25 -40 79 -40t54 33q0 20 -18.5 29t-64.5 9v53q-99 7 -161.5 63t-70.5 152h97q18 -137 166 -137q67 0 106.5 29.5t39.5 83.5q0 52 -39 80t-126 42q-117 18 -172.5 66.5t-55.5 134.5t61.5 139t165.5 53q101 0 167.5 -53t78.5 -152h-99
q-18 125 -148 125t-130 -104q0 -51 36 -79t124 -41q120 -17 176.5 -67.5t56.5 -136.5q0 -81 -58.5 -135.5t-152.5 -62.5v-17q46 -4 74.5 -25.5t28.5 -55.5q0 -42 -39 -64t-95 -22z" />
    <glyph glyph-name="Scaron.c" horiz-adv-x="613" 
d="M275 777q-66 73 -144 132l38 44q69 -40 145 -96q67 53 143 97l38 -45q-79 -59 -142 -132h-78zM317 73q67 0 106.5 29.5t39.5 83.5q0 52 -39 80t-126 42q-117 18 -172.5 66.5t-55.5 134.5t61.5 139t165.5 53q101 0 167.5 -53t78.5 -152h-99q-18 125 -148 125t-130 -104
q0 -51 36 -79t124 -41q120 -17 176.5 -67.5t56.5 -136.5q0 -88 -67.5 -143.5t-174.5 -55.5q-111 -1 -182.5 55.5t-80.5 160.5h97q18 -137 166 -137z" />
    <glyph glyph-name="Scommaaccent.c" horiz-adv-x="613" 
d="M317 73q67 0 106.5 29.5t39.5 83.5q0 52 -39 80t-126 42q-117 18 -172.5 66.5t-55.5 134.5t61.5 139t165.5 53q101 0 167.5 -53t78.5 -152h-99q-18 125 -148 125t-130 -104q0 -51 36 -79t124 -41q120 -17 176.5 -67.5t56.5 -136.5q0 -88 -67.5 -143.5t-174.5 -55.5
q-111 -1 -182.5 55.5t-80.5 160.5h97q18 -137 166 -137zM197 -251q39 87 63 174h125q-47 -86 -121 -174h-67z" />
    <glyph glyph-name="IJ.c" horiz-adv-x="986" 
d="M49 0v79h137v538h-137v79h370v-79h-136v-538h136v-79h-370zM684 -9q-98 0 -157.5 60.5t-67.5 175.5h97q6 -80 37 -117t94 -37t94 41t31 114v468h97v-469q0 -107 -59 -171.5t-166 -64.5z" />
    <glyph glyph-name="a.c" horiz-adv-x="547" 
d="M236 64q47 0 83.5 24t36.5 75v69h-123q-39 0 -65 -20.5t-26 -60.5q0 -39 24.5 -63t69.5 -24zM520 1q-53 -12 -92.5 9t-45.5 69q-22 -39 -66 -63.5t-102 -24.5q-70 0 -117.5 43.5t-47.5 112.5q0 71 48.5 111.5t126.5 40.5h132v55q0 49 -28 76t-79 27q-95 0 -105 -84h-85
q8 73 58 116t135 43q86 0 141.5 -47t55.5 -127v-233q0 -71 71 -50v-74z" />
    <glyph glyph-name="agrave.c" horiz-adv-x="547" 
d="M254 598q-84 76 -153 165h123q31 -66 96 -165h-66zM236 64q47 0 83.5 24t36.5 75v69h-123q-39 0 -65 -20.5t-26 -60.5q0 -39 24.5 -63t69.5 -24zM520 1q-53 -12 -92.5 9t-45.5 69q-22 -39 -66 -63.5t-102 -24.5q-70 0 -117.5 43.5t-47.5 112.5q0 71 48.5 111.5
t126.5 40.5h132v55q0 49 -28 76t-79 27q-95 0 -105 -84h-85q8 73 58 116t135 43q86 0 141.5 -47t55.5 -127v-233q0 -71 71 -50v-74z" />
    <glyph glyph-name="aacute.c" horiz-adv-x="547" 
d="M180 598q63 94 95 165h128q-70 -90 -152 -165h-71zM236 64q47 0 83.5 24t36.5 75v69h-123q-39 0 -65 -20.5t-26 -60.5q0 -39 24.5 -63t69.5 -24zM520 1q-53 -12 -92.5 9t-45.5 69q-22 -39 -66 -63.5t-102 -24.5q-70 0 -117.5 43.5t-47.5 112.5q0 71 48.5 111.5
t126.5 40.5h132v55q0 49 -28 76t-79 27q-95 0 -105 -84h-85q8 73 58 116t135 43q86 0 141.5 -47t55.5 -127v-233q0 -71 71 -50v-74z" />
    <glyph glyph-name="acircumflex.c" horiz-adv-x="547" 
d="M115 604l-38 44q77 60 143 131h77q71 -76 144 -131l-38 -44q-75 41 -145 96q-69 -56 -143 -96zM236 64q47 0 83.5 24t36.5 75v69h-123q-39 0 -65 -20.5t-26 -60.5q0 -39 24.5 -63t69.5 -24zM520 1q-53 -12 -92.5 9t-45.5 69q-22 -39 -66 -63.5t-102 -24.5
q-70 0 -117.5 43.5t-47.5 112.5q0 71 48.5 111.5t126.5 40.5h132v55q0 49 -28 76t-79 27q-95 0 -105 -84h-85q8 73 58 116t135 43q86 0 141.5 -47t55.5 -127v-233q0 -71 71 -50v-74z" />
    <glyph glyph-name="atilde.c" horiz-adv-x="547" 
d="M324 608q-45 0 -82 52l-10.5 14t-11 14t-10 10t-11.5 8.5t-11 2.5q-37 0 -36 -82v-10h-73v13q0 67 29.5 109.5t81.5 42.5q21 0 38 -8.5t26 -17.5t21 -25l10.5 -14t11 -14.5t9 -10.5t11 -8.5t10.5 -2.5q36 0 36 81v10h73v-13q0 -67 -30 -109t-82 -42zM236 64q47 0 83.5 24
t36.5 75v69h-123q-39 0 -65 -20.5t-26 -60.5q0 -39 24.5 -63t69.5 -24zM520 1q-53 -12 -92.5 9t-45.5 69q-22 -39 -66 -63.5t-102 -24.5q-70 0 -117.5 43.5t-47.5 112.5q0 71 48.5 111.5t126.5 40.5h132v55q0 49 -28 76t-79 27q-95 0 -105 -84h-85q8 73 58 116t135 43
q86 0 141.5 -47t55.5 -127v-233q0 -71 71 -50v-74z" />
    <glyph glyph-name="adieresis.c" horiz-adv-x="547" 
d="M356 612q-27 0 -43 14.5t-16 42.5q0 29 16 44.5t43 15.5q26 0 42 -16t16 -45q0 -27 -16 -41.5t-42 -14.5zM173 612q-27 0 -43 14.5t-16 42.5q0 29 16 44.5t43 15.5q26 0 42 -16t16 -45q0 -27 -16 -41.5t-42 -14.5zM236 64q47 0 83.5 24t36.5 75v69h-123q-39 0 -65 -20.5
t-26 -60.5q0 -39 24.5 -63t69.5 -24zM520 1q-53 -12 -92.5 9t-45.5 69q-22 -39 -66 -63.5t-102 -24.5q-70 0 -117.5 43.5t-47.5 112.5q0 71 48.5 111.5t126.5 40.5h132v55q0 49 -28 76t-79 27q-95 0 -105 -84h-85q8 73 58 116t135 43q86 0 141.5 -47t55.5 -127v-233
q0 -71 71 -50v-74z" />
    <glyph glyph-name="aring.c" horiz-adv-x="547" 
d="M252 592q-63 0 -99.5 35t-36.5 100q0 64 37 100t99 36t99 -36t37 -100q0 -65 -36.5 -100t-99.5 -35zM252 649q67 0 67 78q0 37 -17 58t-50 21q-67 0 -67 -79q0 -78 67 -78zM236 64q47 0 83.5 24t36.5 75v69h-123q-39 0 -65 -20.5t-26 -60.5q0 -39 24.5 -63t69.5 -24z
M520 1q-53 -12 -92.5 9t-45.5 69q-22 -39 -66 -63.5t-102 -24.5q-70 0 -117.5 43.5t-47.5 112.5q0 71 48.5 111.5t126.5 40.5h132v55q0 49 -28 76t-79 27q-95 0 -105 -84h-85q8 73 58 116t135 43q86 0 141.5 -47t55.5 -127v-233q0 -71 71 -50v-74z" />
    <glyph glyph-name="amacron.c" horiz-adv-x="547" 
d="M111 645v76h315v-76h-315zM236 64q47 0 83.5 24t36.5 75v69h-123q-39 0 -65 -20.5t-26 -60.5q0 -39 24.5 -63t69.5 -24zM520 1q-53 -12 -92.5 9t-45.5 69q-22 -39 -66 -63.5t-102 -24.5q-70 0 -117.5 43.5t-47.5 112.5q0 71 48.5 111.5t126.5 40.5h132v55q0 49 -28 76
t-79 27q-95 0 -105 -84h-85q8 73 58 116t135 43q86 0 141.5 -47t55.5 -127v-233q0 -71 71 -50v-74z" />
    <glyph glyph-name="abreve.c" horiz-adv-x="547" 
d="M268 603q-84 0 -131 43t-48 132h80q1 -62 24 -87t75 -25t75.5 25t24.5 87h79q-1 -89 -47.5 -132t-131.5 -43zM236 64q47 0 83.5 24t36.5 75v69h-123q-39 0 -65 -20.5t-26 -60.5q0 -39 24.5 -63t69.5 -24zM520 1q-53 -12 -92.5 9t-45.5 69q-22 -39 -66 -63.5t-102 -24.5
q-70 0 -117.5 43.5t-47.5 112.5q0 71 48.5 111.5t126.5 40.5h132v55q0 49 -28 76t-79 27q-95 0 -105 -84h-85q8 73 58 116t135 43q86 0 141.5 -47t55.5 -127v-233q0 -71 71 -50v-74z" />
    <glyph glyph-name="aogonek.c" horiz-adv-x="547" 
d="M236 64q47 0 83.5 24t36.5 75v69h-123q-39 0 -65 -20.5t-26 -60.5q0 -39 24.5 -63t69.5 -24zM559 -180q-45 -9 -85 -9q-57 0 -92 26.5t-35 71.5q0 66 64 112q-25 23 -29 58q-22 -39 -66 -63.5t-102 -24.5q-70 0 -117.5 43.5t-47.5 112.5q0 71 48.5 111.5t126.5 40.5h132
v55q0 49 -28 76t-79 27q-95 0 -105 -84h-85q8 73 58 116t135 43q86 0 141.5 -47t55.5 -127v-233q0 -71 71 -50v-74q-36 -9 -68 -1q-35 -32 -35 -69q0 -52 72 -52q32 0 70 9v-68z" />
    <glyph glyph-name="aringacute.c" horiz-adv-x="547" 
d="M256 592q-63 0 -99.5 35t-36.5 100q0 53 25.5 87t71.5 45h-3q64 96 96 165h128q-67 -85 -151 -164q49 -8 77 -42.5t28 -90.5q0 -65 -36.5 -100t-99.5 -35zM256 649q67 0 67 78q0 37 -17 58t-50 21q-67 0 -67 -79q0 -78 67 -78zM236 64q47 0 83.5 24t36.5 75v69h-123
q-39 0 -65 -20.5t-26 -60.5q0 -39 24.5 -63t69.5 -24zM520 1q-53 -12 -92.5 9t-45.5 69q-22 -39 -66 -63.5t-102 -24.5q-70 0 -117.5 43.5t-47.5 112.5q0 71 48.5 111.5t126.5 40.5h132v55q0 49 -28 76t-79 27q-95 0 -105 -84h-85q8 73 58 116t135 43q86 0 141.5 -47
t55.5 -127v-233q0 -71 71 -50v-74z" />
    <glyph glyph-name="b.c" horiz-adv-x="578" 
d="M181 0h-97v715h97v-266q39 83 139 83q86 0 142.5 -69t56.5 -202q0 -132 -56.5 -201t-142.5 -69q-101 0 -139 77v-68zM299 451q-123 0 -123 -189q0 -193 123 -193q124 0 124 192q0 190 -124 190z" />
    <glyph glyph-name="c.c" horiz-adv-x="532" 
d="M277 -9q-104 0 -161.5 68.5t-57.5 202.5q0 132 58 201t161 69q83 0 137 -50t66 -134h-96q-7 50 -36 77.5t-71 27.5q-122 0 -122 -191q0 -101 30 -147t92 -46q43 0 71.5 26.5t35.5 76.5h96q-12 -83 -66 -132t-137 -49z" />
    <glyph glyph-name="ccedilla.c" horiz-adv-x="532" 
d="M273 -189q-87 0 -131 58l50 42q25 -40 79 -40t54 33q0 20 -18.5 29t-64.5 9v51q-88 11 -136 79t-48 190q0 132 58 201t161 69q83 0 137 -50t66 -134h-96q-7 50 -36 77.5t-71 27.5q-122 0 -122 -191q0 -101 30 -147t92 -46q43 0 71.5 26.5t35.5 76.5h96
q-11 -76 -57.5 -124t-118.5 -56v-14q46 -4 75 -25.5t29 -55.5q0 -42 -39.5 -64t-95.5 -22z" />
    <glyph glyph-name="cacute.c" horiz-adv-x="532" 
d="M198 598q58 84 96 165h128q-73 -92 -153 -165h-71zM277 -9q-104 0 -161.5 68.5t-57.5 202.5q0 132 58 201t161 69q83 0 137 -50t66 -134h-96q-7 50 -36 77.5t-71 27.5q-122 0 -122 -191q0 -101 30 -147t92 -46q43 0 71.5 26.5t35.5 76.5h96q-12 -83 -66 -132t-137 -49z
" />
    <glyph glyph-name="ccircumflex.c" horiz-adv-x="532" 
d="M125 604l-38 44q77 60 143 131h77q77 -80 144 -131l-37 -44q-75 40 -146 96q-64 -54 -143 -96zM277 -9q-104 0 -161.5 68.5t-57.5 202.5q0 132 58 201t161 69q83 0 137 -50t66 -134h-96q-7 50 -36 77.5t-71 27.5q-122 0 -122 -191q0 -101 30 -147t92 -46q43 0 71.5 26.5
t35.5 76.5h96q-12 -83 -66 -132t-137 -49z" />
    <glyph glyph-name="cdotaccent.c" horiz-adv-x="532" 
d="M262 612q-29 0 -46 14.5t-17 42.5q0 29 17.5 44.5t45.5 15.5q29 0 46 -16t17 -45q0 -27 -17 -41.5t-46 -14.5zM277 -9q-104 0 -161.5 68.5t-57.5 202.5q0 132 58 201t161 69q83 0 137 -50t66 -134h-96q-7 50 -36 77.5t-71 27.5q-122 0 -122 -191q0 -101 30 -147t92 -46
q43 0 71.5 26.5t35.5 76.5h96q-12 -83 -66 -132t-137 -49z" />
    <glyph glyph-name="ccaron.c" horiz-adv-x="532" 
d="M225 604q-70 75 -145 131l38 44q65 -36 145 -96q62 51 144 97l37 -45q-74 -55 -142 -131h-77zM277 -9q-104 0 -161.5 68.5t-57.5 202.5q0 132 58 201t161 69q83 0 137 -50t66 -134h-96q-7 50 -36 77.5t-71 27.5q-122 0 -122 -191q0 -101 30 -147t92 -46q43 0 71.5 26.5
t35.5 76.5h96q-12 -83 -66 -132t-137 -49z" />
    <glyph glyph-name="d.c" horiz-adv-x="578" 
d="M278 71q62 0 92.5 44.5t30.5 144.5q0 101 -31 147t-92 46q-124 0 -124 -192q0 -190 124 -190zM397 716h97v-716h-96v73q-38 -82 -141 -82q-86 0 -142.5 68.5t-56.5 201.5q0 132 56.5 201.5t142.5 69.5q100 0 140 -78v262z" />
    <glyph glyph-name="dcaron.c" horiz-adv-x="578" 
d="M540 551q32 112 40 217h93q-18 -124 -77 -217h-56zM278 71q62 0 92.5 44.5t30.5 144.5q0 101 -31 147t-92 46q-124 0 -124 -192q0 -190 124 -190zM397 716h97v-716h-96v73q-38 -82 -141 -82q-86 0 -142.5 68.5t-56.5 201.5q0 132 56.5 201.5t142.5 69.5q100 0 140 -78
v262z" />
    <glyph glyph-name="e.c" horiz-adv-x="550" 
d="M283 457q-58 0 -89.5 -34.5t-38.5 -111.5h242q-3 146 -114 146zM489 146q-10 -70 -67.5 -112.5t-138.5 -42.5q-107 0 -166 68t-59 204q0 132 60.5 200.5t164.5 68.5q93 0 151 -65t58 -180v-47h-338q3 -94 34 -135t95 -41q92 0 114 82h92z" />
    <glyph glyph-name="egrave.c" horiz-adv-x="550" 
d="M286 598q-82 75 -154 165h123q38 -77 97 -165h-66zM283 457q-58 0 -89.5 -34.5t-38.5 -111.5h242q-3 146 -114 146zM489 146q-10 -70 -67.5 -112.5t-138.5 -42.5q-107 0 -166 68t-59 204q0 132 60.5 200.5t164.5 68.5q93 0 151 -65t58 -180v-47h-338q3 -94 34 -135
t95 -41q92 0 114 82h92z" />
    <glyph glyph-name="eacute.c" horiz-adv-x="550" 
d="M199 598q58 84 96 165h128q-73 -92 -153 -165h-71zM283 457q-58 0 -89.5 -34.5t-38.5 -111.5h242q-3 146 -114 146zM489 146q-10 -70 -67.5 -112.5t-138.5 -42.5q-107 0 -166 68t-59 204q0 132 60.5 200.5t164.5 68.5q93 0 151 -65t58 -180v-47h-338q3 -94 34 -135
t95 -41q92 0 114 82h92z" />
    <glyph glyph-name="ecircumflex.c" horiz-adv-x="550" 
d="M133 604l-37 44q78 62 142 131h77q73 -77 144 -131l-37 -44q-75 40 -146 96q-64 -54 -143 -96zM283 457q-58 0 -89.5 -34.5t-38.5 -111.5h242q-3 146 -114 146zM489 146q-10 -70 -67.5 -112.5t-138.5 -42.5q-107 0 -166 68t-59 204q0 132 60.5 200.5t164.5 68.5
q93 0 151 -65t58 -180v-47h-338q3 -94 34 -135t95 -41q92 0 114 82h92z" />
    <glyph glyph-name="edieresis.c" horiz-adv-x="550" 
d="M369 612q-27 0 -43 14.5t-16 42.5q0 29 16 44.5t43 15.5q26 0 42 -16t16 -45q0 -27 -16 -41.5t-42 -14.5zM186 612q-27 0 -43 14.5t-16 42.5q0 29 16 44.5t43 15.5t42.5 -16t15.5 -45q0 -27 -16 -41.5t-42 -14.5zM283 457q-58 0 -89.5 -34.5t-38.5 -111.5h242
q-3 146 -114 146zM489 146q-10 -70 -67.5 -112.5t-138.5 -42.5q-107 0 -166 68t-59 204q0 132 60.5 200.5t164.5 68.5q93 0 151 -65t58 -180v-47h-338q3 -94 34 -135t95 -41q92 0 114 82h92z" />
    <glyph glyph-name="emacron.c" horiz-adv-x="550" 
d="M120 644v76h315v-76h-315zM283 457q-58 0 -89.5 -34.5t-38.5 -111.5h242q-3 146 -114 146zM489 146q-10 -70 -67.5 -112.5t-138.5 -42.5q-107 0 -166 68t-59 204q0 132 60.5 200.5t164.5 68.5q93 0 151 -65t58 -180v-47h-338q3 -94 34 -135t95 -41q92 0 114 82h92z" />
    <glyph glyph-name="ebreve.c" horiz-adv-x="550" 
d="M277 603q-84 0 -130.5 43t-47.5 132h79q1 -62 24 -87t75 -25q53 0 76 25t24 87h79q-1 -89 -47.5 -132t-131.5 -43zM283 457q-58 0 -89.5 -34.5t-38.5 -111.5h242q-3 146 -114 146zM489 146q-10 -70 -67.5 -112.5t-138.5 -42.5q-107 0 -166 68t-59 204q0 132 60.5 200.5
t164.5 68.5q93 0 151 -65t58 -180v-47h-338q3 -94 34 -135t95 -41q92 0 114 82h92z" />
    <glyph glyph-name="edotaccent.c" horiz-adv-x="550" 
d="M277 612q-29 0 -46 14.5t-17 42.5q0 29 17.5 44.5t45.5 15.5q29 0 46 -16t17 -45q0 -27 -17 -41.5t-46 -14.5zM283 457q-58 0 -89.5 -34.5t-38.5 -111.5h242q-3 146 -114 146zM489 146q-10 -70 -67.5 -112.5t-138.5 -42.5q-107 0 -166 68t-59 204q0 132 60.5 200.5
t164.5 68.5q93 0 151 -65t58 -180v-47h-338q3 -94 34 -135t95 -41q92 0 114 82h92z" />
    <glyph glyph-name="eogonek.c" horiz-adv-x="550" 
d="M283 457q-58 0 -89.5 -34.5t-38.5 -111.5h242q-3 146 -114 146zM481 -180q-47 -9 -86 -9q-56 0 -91.5 26.5t-35.5 71.5q0 44 33 82h-18q-107 0 -166 68t-59 204q0 132 60.5 200.5t164.5 68.5q93 0 151 -65t58 -180v-47h-338q3 -94 34 -135t95 -41q92 0 114 82h92
q-13 -91 -101 -133q-50 -40 -50 -82q0 -52 73 -52q30 0 70 9v-68z" />
    <glyph glyph-name="ecaron.c" horiz-adv-x="550" 
d="M239 604q-69 74 -144 131l37 44q71 -40 145 -96q62 51 144 97l37 -45q-77 -58 -142 -131h-77zM283 457q-58 0 -89.5 -34.5t-38.5 -111.5h242q-3 146 -114 146zM489 146q-10 -70 -67.5 -112.5t-138.5 -42.5q-107 0 -166 68t-59 204q0 132 60.5 200.5t164.5 68.5
q93 0 151 -65t58 -180v-47h-338q3 -94 34 -135t95 -41q92 0 114 82h92z" />
    <glyph glyph-name="f.c" horiz-adv-x="400" 
d="M139 0v444h-102v78h102v37q0 157 172 157h59v-78h-50q-83 0 -83 -82v-34h133v-78h-133v-444h-98z" />
    <glyph glyph-name="g.c" horiz-adv-x="572" 
d="M273 107q62 0 92.5 40t30.5 131q0 175 -123 175q-124 0 -124 -174q0 -91 31.5 -131.5t92.5 -40.5zM270 -186q-85 0 -141.5 39.5t-60.5 119.5h90q8 -82 112 -82q53 0 87 27t34 85v105q-39 -82 -142 -82q-85 0 -141 64.5t-56 187.5q0 124 56.5 189t143.5 65q52 0 87 -22
t52 -56v68h97v-519q0 -88 -64 -138.5t-154 -50.5z" />
    <glyph glyph-name="gcircumflex.c" horiz-adv-x="572" 
d="M162 604l-38 44q79 62 142 131h77q74 -78 145 -131l-38 -44q-72 38 -145 96q-66 -54 -143 -96zM273 107q62 0 92.5 40t30.5 131q0 175 -123 175q-124 0 -124 -174q0 -91 31.5 -131.5t92.5 -40.5zM270 -186q-85 0 -141.5 39.5t-60.5 119.5h90q8 -82 112 -82q53 0 87 27
t34 85v105q-39 -82 -142 -82q-85 0 -141 64.5t-56 187.5q0 124 56.5 189t143.5 65q52 0 87 -22t52 -56v68h97v-519q0 -88 -64 -138.5t-154 -50.5z" />
    <glyph glyph-name="gbreve.c" horiz-adv-x="572" 
d="M306 603q-85 0 -131.5 43t-47.5 132h79q1 -62 24.5 -87t75.5 -25t75 25t24 87h80q-1 -89 -47.5 -132t-131.5 -43zM273 107q62 0 92.5 40t30.5 131q0 175 -123 175q-124 0 -124 -174q0 -91 31.5 -131.5t92.5 -40.5zM270 -186q-85 0 -141.5 39.5t-60.5 119.5h90
q8 -82 112 -82q53 0 87 27t34 85v105q-39 -82 -142 -82q-85 0 -141 64.5t-56 187.5q0 124 56.5 189t143.5 65q52 0 87 -22t52 -56v68h97v-519q0 -88 -64 -138.5t-154 -50.5z" />
    <glyph glyph-name="gdotaccent.c" horiz-adv-x="572" 
d="M306 612q-29 0 -46 14.5t-17 42.5q0 29 17 44.5t46 15.5t46 -16t17 -45q0 -27 -17.5 -41.5t-45.5 -14.5zM273 107q62 0 92.5 40t30.5 131q0 175 -123 175q-124 0 -124 -174q0 -91 31.5 -131.5t92.5 -40.5zM270 -186q-85 0 -141.5 39.5t-60.5 119.5h90q8 -82 112 -82
q53 0 87 27t34 85v105q-39 -82 -142 -82q-85 0 -141 64.5t-56 187.5q0 124 56.5 189t143.5 65q52 0 87 -22t52 -56v68h97v-519q0 -88 -64 -138.5t-154 -50.5z" />
    <glyph glyph-name="gcommaaccent.c" horiz-adv-x="572" 
d="M237 600q51 91 121 173h67q-38 -83 -64 -173h-124zM273 107q62 0 92.5 40t30.5 131q0 175 -123 175q-124 0 -124 -174q0 -91 31.5 -131.5t92.5 -40.5zM270 -186q-85 0 -141.5 39.5t-60.5 119.5h90q8 -82 112 -82q53 0 87 27t34 85v105q-39 -82 -142 -82q-85 0 -141 64.5
t-56 187.5q0 124 56.5 189t143.5 65q52 0 87 -22t52 -56v68h97v-519q0 -88 -64 -138.5t-154 -50.5z" />
    <glyph glyph-name="h.c" 
d="M181 0h-97v716h96v-263q14 33 52.5 56t90.5 23q78 0 128 -54.5t50 -148.5v-329h-97v311q0 138 -111 138q-112 0 -112 -137v-312z" />
    <glyph glyph-name="hcircumflex.c" 
d="M-14 777l-38 45q79 62 142 131h78q71 -76 144 -131l-38 -45q-83 46 -145 97q-62 -52 -143 -97zM181 0h-97v716h96v-263q14 33 52.5 56t90.5 23q78 0 128 -54.5t50 -148.5v-329h-97v311q0 138 -111 138q-112 0 -112 -137v-312z" />
    <glyph glyph-name="j.c" horiz-adv-x="283" 
d="M148 612q-29 0 -46 14.5t-17 42.5q0 29 17.5 44.5t45.5 15.5q29 0 46 -16t17 -45q0 -27 -17 -41.5t-46 -14.5zM29 -174h-67v78h58q80 0 80 83v535h96v-538q0 -78 -43.5 -118t-123.5 -40z" />
    <glyph glyph-name="m.c" horiz-adv-x="855" 
d="M181 312v-312h-97v522h96v-69q15 33 50 56t82 23q48 0 86.5 -25.5t58.5 -70.5q45 96 152 96q72 0 119 -54.5t47 -148.5v-329h-96v311q0 138 -101 138q-99 0 -99 -137v-312h-98v311q0 138 -99 138q-101 0 -101 -137z" />
    <glyph glyph-name="n.c" 
d="M181 0h-97v522h96v-69q14 33 52.5 56t90.5 23q78 0 128 -54.5t50 -148.5v-329h-97v311q0 138 -111 138q-112 0 -112 -137v-312z" />
    <glyph glyph-name="ntilde.c" 
d="M373 608q-45 0 -82 52q-4 5 -11 14t-11 14t-9.5 10.5t-11 8t-11.5 2.5q-37 0 -36 -82v-10h-73v13q0 67 29.5 109.5t81.5 42.5q21 0 38 -8.5t26 -17.5t21 -25q2 -3 7.5 -10.5t7.5 -10.5t6.5 -9t7.5 -8.5t7 -6t8 -4.5t8 -1q36 0 36 81v10h73v-13q0 -67 -30 -109t-82 -42z
M181 0h-97v522h96v-69q14 33 52.5 56t90.5 23q78 0 128 -54.5t50 -148.5v-329h-97v311q0 138 -111 138q-112 0 -112 -137v-312z" />
    <glyph glyph-name="nacute.c" 
d="M233 598q62 94 95 165h128q-70 -90 -152 -165h-71zM181 0h-97v522h96v-69q14 33 52.5 56t90.5 23q78 0 128 -54.5t50 -148.5v-329h-97v311q0 138 -111 138q-112 0 -112 -137v-312z" />
    <glyph glyph-name="ncommaaccent.c" 
d="M181 0h-97v522h96v-69q14 33 52.5 56t90.5 23q78 0 128 -54.5t50 -148.5v-329h-97v311q0 138 -111 138q-112 0 -112 -137v-312zM172 -251q38 87 63 174h125q-52 -91 -121 -174h-67z" />
    <glyph glyph-name="ncaron.c" 
d="M260 604q-73 77 -144 131l37 44q69 -39 146 -96q60 51 143 97l38 -45q-77 -57 -143 -131h-77zM181 0h-97v522h96v-69q14 33 52.5 56t90.5 23q78 0 128 -54.5t50 -148.5v-329h-97v311q0 138 -111 138q-112 0 -112 -137v-312z" />
    <glyph glyph-name="p.c" horiz-adv-x="578" 
d="M299 451q-123 0 -123 -189q0 -193 123 -193q124 0 124 192q0 190 -124 190zM181 -174h-97v696h96v-73q39 83 140 83q86 0 142.5 -69t56.5 -202q0 -132 -56.5 -201t-142.5 -69q-101 0 -139 77v-242z" />
    <glyph glyph-name="q.c" horiz-adv-x="578" 
d="M398 522h96v-695h-97v246q-38 -82 -140 -82q-86 0 -142.5 68.5t-56.5 201.5q0 132 56.5 201.5t142.5 69.5q53 0 88.5 -22t52.5 -56v68zM278 71q62 0 92.5 44.5t30.5 144.5q0 101 -31 147t-92 46q-124 0 -124 -192q0 -190 124 -190z" />
    <glyph glyph-name="r.c" horiz-adv-x="394" 
d="M181 0h-97v522h96v-89q18 42 63 65.5t100 23.5h28v-80h-25q-69 0 -117 -36.5t-48 -108.5v-297z" />
    <glyph glyph-name="racute.c" horiz-adv-x="394" 
d="M174 598q62 94 95 165h128q-70 -90 -152 -165h-71zM181 0h-97v522h96v-89q18 42 63 65.5t100 23.5h28v-80h-25q-69 0 -117 -36.5t-48 -108.5v-297z" />
    <glyph glyph-name="rcommaaccent.c" horiz-adv-x="394" 
d="M181 0h-97v522h96v-89q18 42 63 65.5t100 23.5h28v-80h-25q-69 0 -117 -36.5t-48 -108.5v-297zM18 -251q39 87 63 174h125q-47 -86 -121 -174h-67z" />
    <glyph glyph-name="rcaron.c" horiz-adv-x="394" 
d="M194 604q-73 77 -144 131l37 44q69 -39 146 -96q60 51 143 97l38 -45q-77 -57 -143 -131h-77zM181 0h-97v522h96v-89q18 42 63 65.5t100 23.5h28v-80h-25q-69 0 -117 -36.5t-48 -108.5v-297z" />
    <glyph glyph-name="s.c" horiz-adv-x="508" 
d="M260 -9q-87 0 -146.5 41.5t-64.5 125.5h88q9 -91 124 -91q48 0 79.5 18t31.5 57q0 37 -27 52t-102 27q-97 14 -144.5 48.5t-47.5 105.5q0 73 55.5 115t138.5 42q80 0 138 -41.5t63 -122.5h-89q-8 87 -113 87q-44 0 -73 -17.5t-29 -54.5t28 -53t108 -27q94 -14 139.5 -48
t45.5 -104q0 -75 -58 -117.5t-145 -42.5z" />
    <glyph glyph-name="sacute.c" horiz-adv-x="508" 
d="M179 598q63 94 95 165h128q-70 -90 -152 -165h-71zM260 -9q-87 0 -146.5 41.5t-64.5 125.5h88q9 -91 124 -91q48 0 79.5 18t31.5 57q0 37 -27 52t-102 27q-97 14 -144.5 48.5t-47.5 105.5q0 73 55.5 115t138.5 42q80 0 138 -41.5t63 -122.5h-89q-8 87 -113 87
q-44 0 -73 -17.5t-29 -54.5t28 -53t108 -27q94 -14 139.5 -48t45.5 -104q0 -75 -58 -117.5t-145 -42.5z" />
    <glyph glyph-name="scircumflex.c" horiz-adv-x="508" 
d="M108 604l-38 44q79 62 142 131h78q71 -76 144 -131l-38 -44q-72 38 -145 96q-69 -56 -143 -96zM260 -9q-87 0 -146.5 41.5t-64.5 125.5h88q9 -91 124 -91q48 0 79.5 18t31.5 57q0 37 -27 52t-102 27q-97 14 -144.5 48.5t-47.5 105.5q0 73 55.5 115t138.5 42
q80 0 138 -41.5t63 -122.5h-89q-8 87 -113 87q-44 0 -73 -17.5t-29 -54.5t28 -53t108 -27q94 -14 139.5 -48t45.5 -104q0 -75 -58 -117.5t-145 -42.5z" />
    <glyph glyph-name="scedilla.c" horiz-adv-x="508" 
d="M265 -189q-87 0 -131 58l50 42q25 -40 79 -40t54 33q0 20 -18.5 29t-64.5 9v50q-77 6 -129 47.5t-56 118.5h88q9 -91 124 -91q48 0 79.5 18t31.5 57q0 37 -27 52t-102 27q-97 14 -144.5 48.5t-47.5 105.5q0 73 55.5 115t138.5 42q80 0 138 -41.5t63 -122.5h-89
q-8 87 -113 87q-44 0 -73 -17.5t-29 -54.5t28 -53t108 -27q94 -14 139.5 -48t45.5 -104q0 -67 -47 -108t-120 -50v-15q46 -4 74.5 -25.5t28.5 -55.5q0 -42 -39 -64t-95 -22z" />
    <glyph glyph-name="scaron.c" horiz-adv-x="508" 
d="M214 604q-67 74 -144 131l38 44q65 -36 145 -96q61 50 143 97l38 -45q-78 -58 -142 -131h-78zM260 -9q-87 0 -146.5 41.5t-64.5 125.5h88q9 -91 124 -91q48 0 79.5 18t31.5 57q0 37 -27 52t-102 27q-97 14 -144.5 48.5t-47.5 105.5q0 73 55.5 115t138.5 42
q80 0 138 -41.5t63 -122.5h-89q-8 87 -113 87q-44 0 -73 -17.5t-29 -54.5t28 -53t108 -27q94 -14 139.5 -48t45.5 -104q0 -75 -58 -117.5t-145 -42.5z" />
    <glyph glyph-name="scommaaccent.c" horiz-adv-x="508" 
d="M260 -9q-87 0 -146.5 41.5t-64.5 125.5h88q9 -91 124 -91q48 0 79.5 18t31.5 57q0 37 -27 52t-102 27q-97 14 -144.5 48.5t-47.5 105.5q0 73 55.5 115t138.5 42q80 0 138 -41.5t63 -122.5h-89q-8 87 -113 87q-44 0 -73 -17.5t-29 -54.5t28 -53t108 -27q94 -14 139.5 -48
t45.5 -104q0 -75 -58 -117.5t-145 -42.5zM133 -251q39 87 63 174h125q-47 -86 -121 -174h-67z" />
    <glyph glyph-name="t.c" horiz-adv-x="410" 
d="M298 0q-83 0 -126.5 40.5t-43.5 118.5v285h-100v78h100v144h97v-144h142v-78h-142v-285q0 -81 82 -81h60v-78h-69z" />
    <glyph glyph-name="tcedilla.c" horiz-adv-x="410" 
d="M263 -189q-87 0 -131 58l50 42q25 -40 79 -40t54 33q0 20 -18.5 29t-64.5 9v66q-104 29 -104 151v285h-100v78h100v144h97v-144h142v-78h-142v-285q0 -81 82 -81h60v-78h-69h-4v-22q46 -4 74.5 -25.5t28.5 -55.5q0 -42 -39 -64t-95 -22z" />
    <glyph glyph-name="tcaron.c" horiz-adv-x="410" 
d="M315 614q34 116 41 217h92q-19 -127 -77 -217h-56zM298 0q-83 0 -126.5 40.5t-43.5 118.5v285h-100v78h100v144h97v-144h142v-78h-142v-285q0 -81 82 -81h60v-78h-69z" />
    <glyph glyph-name="tcommaaccent.c" horiz-adv-x="410" 
d="M298 0q-83 0 -126.5 40.5t-43.5 118.5v285h-100v78h100v144h97v-144h142v-78h-142v-285q0 -81 82 -81h60v-78h-69zM147 -251q39 87 63 174h125q-47 -86 -121 -174h-67z" />
    <glyph glyph-name="u.c" 
d="M399 522h97v-522h-96v69q-15 -33 -53 -55.5t-90 -22.5q-77 0 -127.5 54.5t-50.5 147.5v329h97v-311q0 -138 112 -138q111 0 111 137v312z" />
    <glyph glyph-name="ugrave.c" 
d="M283 598q-82 75 -154 165h123q34 -71 97 -165h-66zM399 522h97v-522h-96v69q-15 -33 -53 -55.5t-90 -22.5q-77 0 -127.5 54.5t-50.5 147.5v329h97v-311q0 -138 112 -138q111 0 111 137v312z" />
    <glyph glyph-name="uacute.c" 
d="M218 598q62 91 96 165h128q-76 -95 -152 -165h-72zM399 522h97v-522h-96v69q-15 -33 -53 -55.5t-90 -22.5q-77 0 -127.5 54.5t-50.5 147.5v329h97v-311q0 -138 112 -138q111 0 111 137v312z" />
    <glyph glyph-name="ucircumflex.c" 
d="M146 604l-37 44q73 57 142 131h77q74 -78 145 -131l-38 -44q-77 41 -145 96q-67 -55 -144 -96zM399 522h97v-522h-96v69q-15 -33 -53 -55.5t-90 -22.5q-77 0 -127.5 54.5t-50.5 147.5v329h97v-311q0 -138 112 -138q111 0 111 137v312z" />
    <glyph glyph-name="udieresis.c" 
d="M386 612q-26 0 -42.5 14.5t-16.5 42.5t16.5 44t42.5 16q27 0 42.5 -16t15.5 -45q0 -27 -16 -41.5t-42 -14.5zM203 612q-27 0 -43 14.5t-16 42.5t16.5 44t42.5 16q27 0 42.5 -16t15.5 -45q0 -27 -16 -41.5t-42 -14.5zM399 522h97v-522h-96v69q-15 -33 -53 -55.5t-90 -22.5
q-77 0 -127.5 54.5t-50.5 147.5v329h97v-311q0 -138 112 -138q111 0 111 137v312z" />
    <glyph glyph-name="utilde.c" 
d="M358 608q-20 0 -36.5 8.5t-25.5 18t-21 25.5q-4 5 -11 14t-10.5 14t-9.5 10.5t-11 8t-11 2.5q-37 0 -36 -82v-10h-73v13q0 67 29 109.5t82 42.5q21 0 38 -8.5t26 -17.5t21 -25q3 -3 9 -12t8.5 -12.5t7.5 -9.5t8.5 -9t8.5 -5t10 -2q35 0 35 81v10h74v-13q0 -67 -30 -109
t-82 -42zM399 522h97v-522h-96v69q-15 -33 -53 -55.5t-90 -22.5q-77 0 -127.5 54.5t-50.5 147.5v329h97v-311q0 -138 112 -138q111 0 111 137v312z" />
    <glyph glyph-name="umacron.c" 
d="M133 644v76h315v-76h-315zM399 522h97v-522h-96v69q-15 -33 -53 -55.5t-90 -22.5q-77 0 -127.5 54.5t-50.5 147.5v329h97v-311q0 -138 112 -138q111 0 111 137v312z" />
    <glyph glyph-name="ubreve.c" 
d="M291 603q-85 0 -131.5 43t-47.5 132h79q1 -62 24.5 -87t75.5 -25t75 25t24 87h80q-3 -175 -179 -175zM399 522h97v-522h-96v69q-15 -33 -53 -55.5t-90 -22.5q-77 0 -127.5 54.5t-50.5 147.5v329h97v-311q0 -138 112 -138q111 0 111 137v312z" />
    <glyph glyph-name="uring.c" 
d="M291 592q-63 0 -100 35t-37 100q0 64 37 100t100 36q62 0 99 -36t37 -100q0 -65 -36.5 -100t-99.5 -35zM291 649q67 0 67 78q0 37 -17.5 58t-49.5 21q-67 0 -67 -79q0 -78 67 -78zM399 522h97v-522h-96v69q-15 -33 -53 -55.5t-90 -22.5q-77 0 -127.5 54.5t-50.5 147.5
v329h97v-311q0 -138 112 -138q111 0 111 137v312z" />
    <glyph glyph-name="uhungarumlaut.c" 
d="M170 598q40 102 57 165h101q-30 -61 -102 -165h-56zM337 598q41 95 58 165h102q-35 -71 -103 -165h-57zM399 522h97v-522h-96v69q-15 -33 -53 -55.5t-90 -22.5q-77 0 -127.5 54.5t-50.5 147.5v329h97v-311q0 -138 112 -138q111 0 111 137v312z" />
    <glyph glyph-name="uogonek.c" 
d="M551 -180q-47 -9 -86 -9q-56 0 -91.5 26.5t-35.5 71.5q0 64 62 110v50q-15 -33 -53 -55.5t-90 -22.5q-77 0 -127.5 54.5t-50.5 147.5v329h97v-311q0 -138 112 -138q111 0 111 137v312h97v-522h-53q-34 -33 -34 -69q0 -52 72 -52q30 0 70 9v-68z" />
    <glyph glyph-name="y.c" horiz-adv-x="512" 
d="M116 -178h-45v78h41q42 0 65 25.5t38 75.5l-182 521h98l130 -402l126 402h96l-196 -560q-49 -140 -171 -140z" />
    <glyph glyph-name="yacute.c" horiz-adv-x="512" 
d="M163 598q62 94 95 165h128q-76 -95 -152 -165h-71zM116 -178h-45v78h41q42 0 65 25.5t38 75.5l-182 521h98l130 -402l126 402h96l-196 -560q-49 -140 -171 -140z" />
    <glyph glyph-name="ydieresis.c" horiz-adv-x="512" 
d="M342 612q-26 0 -42 14.5t-16 42.5q0 29 16 44.5t42 15.5q27 0 42.5 -16t15.5 -45q0 -27 -16 -41.5t-42 -14.5zM160 612q-27 0 -43 14.5t-16 42.5q0 29 16 44.5t43 15.5q26 0 41.5 -16t15.5 -45q0 -27 -15.5 -41.5t-41.5 -14.5zM116 -178h-45v78h41q42 0 65 25.5t38 75.5
l-182 521h98l130 -402l126 402h96l-196 -560q-49 -140 -171 -140z" />
    <glyph glyph-name="ycircumflex.c" horiz-adv-x="512" 
d="M107 604l-38 44q79 62 142 131h78q71 -76 144 -131l-38 -44q-72 38 -145 96q-69 -56 -143 -96zM116 -178h-45v78h41q42 0 65 25.5t38 75.5l-182 521h98l130 -402l126 402h96l-196 -560q-49 -140 -171 -140z" />
    <glyph glyph-name="ygrave.c" horiz-adv-x="512" 
d="M259 598q-84 76 -153 165h123q31 -66 96 -165h-66zM116 -178h-45v78h41q42 0 65 25.5t38 75.5l-182 521h98l130 -402l126 402h96l-196 -560q-49 -140 -171 -140z" />
    <glyph glyph-name="napostrophe.c" 
d="M-9 598q63 94 95 165h128q-70 -90 -152 -165h-71zM181 0h-97v522h96v-69q14 33 52.5 56t90.5 23q78 0 128 -54.5t50 -148.5v-329h-97v311q0 138 -111 138q-112 0 -112 -137v-312z" />
    <glyph glyph-name="two.c" horiz-adv-x="626" 
d="M86 0v119q0 87 53 143t160 105q91 42 118 72t27 76q0 50 -34.5 81t-91.5 31q-66 0 -98 -33t-37 -101h-97q5 101 63 156.5t171 55.5q101 0 161.5 -52t60.5 -138q0 -72 -44.5 -122.5t-148.5 -98.5q-95 -44 -130.5 -81t-35.5 -94v-39h367v-80h-464z" />
    <glyph glyph-name="three.c" horiz-adv-x="626" 
d="M317 -9q-235 0 -252 204h101q6 -67 43.5 -96.5t107.5 -29.5q137 0 137 132q0 70 -31 99t-110 29h-96v80h96q69 0 97.5 23.5t28.5 80.5q0 58 -34.5 86t-94.5 28q-63 0 -93.5 -23.5t-35.5 -84.5h-97q24 186 227 186q100 0 162.5 -49t62.5 -140q0 -62 -37 -101t-98 -44
q69 -7 110 -54t41 -115q0 -103 -62.5 -157t-172.5 -54z" />
    <glyph glyph-name="five.c" horiz-adv-x="626" 
d="M316 -9q-110 0 -170 50.5t-73 158.5h99q9 -69 43.5 -100t100.5 -31q67 0 102.5 39.5t35.5 117.5q0 154 -141 154q-85 0 -123 -48h-92v364h424v-77h-328v-199q55 44 135 44q105 0 164 -60t59 -176q0 -109 -64.5 -173t-171.5 -64z" />
    <glyph glyph-name="six.c" horiz-adv-x="626" 
d="M564 221q0 -108 -64.5 -169t-184.5 -61q-119 0 -183.5 67t-64.5 187v175q0 140 63.5 212.5t186.5 72.5q104 0 164.5 -48t75.5 -137h-102q-17 106 -140 106q-80 0 -115 -46.5t-35 -154.5v-63q56 72 177 72q104 0 163 -56t59 -157zM165 215q0 -146 150 -146t150 145
q0 146 -150 146t-150 -145z" />
    <glyph glyph-name="nine.c" horiz-adv-x="626" 
d="M461 481q0 146 -150 146t-150 -145q0 -146 150 -146t150 145zM62 476q0 108 64.5 168.5t184.5 60.5q119 0 183.5 -67t64.5 -187v-175q0 -140 -63.5 -212.5t-186.5 -72.5q-104 0 -164.5 48t-75.5 137h102q17 -106 140 -106q80 0 115 46.5t35 154.5v63q-57 -72 -177 -72
q-104 0 -163 56t-59 158z" />
    <glyph glyph-name="question.c" horiz-adv-x="586" 
d="M295 222h-77l-4 148q73 5 118.5 16.5t68 30.5t29.5 39.5t7 52.5q0 56 -38.5 87t-106.5 31q-71 0 -104.5 -29t-37.5 -95h-96q8 97 69 149.5t171 52.5q109 0 174.5 -52.5t65.5 -143.5q0 -87 -57 -135.5t-178 -61.5zM257 -7q-34 0 -51.5 20t-17.5 53t17.5 53t51.5 20
q33 0 50.5 -20t17.5 -53t-17.5 -53t-50.5 -20z" />
    <glyph glyph-name="C.o" horiz-adv-x="582" 
d="M365 -9q-146 0 -225.5 90t-79.5 275q0 175 80.5 262t225.5 87q96 0 161 -41v-91q-64 52 -162 52q-102 0 -155 -63t-53 -206q0 -154 52.5 -219.5t155.5 -65.5q95 0 162 52v-90q-67 -42 -162 -42z" />
    <glyph glyph-name="Ccedilla.o" horiz-adv-x="582" 
d="M335 -189q-87 0 -131 58l50 42q25 -40 79 -40t54 33q0 20 -18.5 29t-64.5 9v53q-244 37 -244 361q0 175 80.5 262t225.5 87q96 0 161 -41v-91q-64 52 -162 52q-102 0 -155 -63t-53 -206q0 -154 52.5 -219.5t155.5 -65.5q95 0 162 52v-90q-67 -42 -161 -42v-13
q46 -4 75 -25.5t29 -55.5q0 -42 -39.5 -64t-95.5 -22z" />
    <glyph glyph-name="Cacute.o" horiz-adv-x="582" 
d="M245 771q60 89 95 166h128q-69 -89 -152 -166h-71zM365 -9q-146 0 -225.5 90t-79.5 275q0 175 80.5 262t225.5 87q96 0 161 -41v-91q-64 52 -162 52q-102 0 -155 -63t-53 -206q0 -154 52.5 -219.5t155.5 -65.5q95 0 162 52v-90q-67 -42 -162 -42z" />
    <glyph glyph-name="Ccircumflex.o" horiz-adv-x="582" 
d="M189 777l-38 45q77 60 143 131h77q77 -80 144 -131l-37 -45q-83 45 -146 97q-58 -49 -143 -97zM365 -9q-146 0 -225.5 90t-79.5 275q0 175 80.5 262t225.5 87q96 0 161 -41v-91q-64 52 -162 52q-102 0 -155 -63t-53 -206q0 -154 52.5 -219.5t155.5 -65.5q95 0 162 52v-90
q-67 -42 -162 -42z" />
    <glyph glyph-name="Cdotaccent.o" horiz-adv-x="582" 
d="M333 786q-29 0 -46 14.5t-17 41.5q0 29 17 44.5t46 15.5q63 0 63 -61q0 -26 -17 -40.5t-46 -14.5zM365 -9q-146 0 -225.5 90t-79.5 275q0 175 80.5 262t225.5 87q96 0 161 -41v-91q-64 52 -162 52q-102 0 -155 -63t-53 -206q0 -154 52.5 -219.5t155.5 -65.5q95 0 162 52
v-90q-67 -42 -162 -42z" />
    <glyph glyph-name="Ccaron.o" horiz-adv-x="582" 
d="M296 777q-69 75 -145 132l38 44q71 -40 145 -96q68 55 144 97l37 -45q-75 -56 -142 -132h-77zM365 -9q-146 0 -225.5 90t-79.5 275q0 175 80.5 262t225.5 87q96 0 161 -41v-91q-64 52 -162 52q-102 0 -155 -63t-53 -206q0 -154 52.5 -219.5t155.5 -65.5q95 0 162 52v-90
q-67 -42 -162 -42z" />
    <glyph glyph-name="G.o" horiz-adv-x="645" 
d="M581 50q-33 -25 -96.5 -42t-127.5 -17q-142 0 -219.5 90t-77.5 275q0 174 81.5 261.5t220.5 87.5q107 0 188 -52v-90q-78 62 -190 62q-203 0 -203 -269q0 -154 51 -219.5t151 -65.5q80 0 125 27v187h-165v80h262v-315z" />
    <glyph glyph-name="Gcircumflex.o" horiz-adv-x="645" 
d="M186 777l-38 45q77 60 143 131h77q77 -80 144 -131l-37 -45q-83 45 -146 97q-58 -49 -143 -97zM581 50q-33 -25 -96.5 -42t-127.5 -17q-142 0 -219.5 90t-77.5 275q0 174 81.5 261.5t220.5 87.5q107 0 188 -52v-90q-78 62 -190 62q-203 0 -203 -269q0 -154 51 -219.5
t151 -65.5q80 0 125 27v187h-165v80h262v-315z" />
    <glyph glyph-name="Gbreve.o" horiz-adv-x="645" 
d="M330 776q-84 0 -131 43.5t-48 132.5h80q1 -62 24 -87.5t75 -25.5t75.5 25.5t24.5 87.5h79q-1 -90 -47.5 -133t-131.5 -43zM581 50q-33 -25 -96.5 -42t-127.5 -17q-142 0 -219.5 90t-77.5 275q0 174 81.5 261.5t220.5 87.5q107 0 188 -52v-90q-78 62 -190 62
q-203 0 -203 -269q0 -154 51 -219.5t151 -65.5q80 0 125 27v187h-165v80h262v-315z" />
    <glyph glyph-name="Gdotaccent.o" horiz-adv-x="645" 
d="M330 786q-29 0 -46 14.5t-17 41.5q0 29 17 44.5t46 15.5q63 0 63 -61q0 -26 -17 -40.5t-46 -14.5zM581 50q-33 -25 -96.5 -42t-127.5 -17q-142 0 -219.5 90t-77.5 275q0 174 81.5 261.5t220.5 87.5q107 0 188 -52v-90q-78 62 -190 62q-203 0 -203 -269q0 -154 51 -219.5
t151 -65.5q80 0 125 27v187h-165v80h262v-315z" />
    <glyph glyph-name="Gcommaaccent.o" horiz-adv-x="645" 
d="M581 50q-33 -25 -96.5 -42t-127.5 -17q-142 0 -219.5 90t-77.5 275q0 174 81.5 261.5t220.5 87.5q107 0 188 -52v-90q-78 62 -190 62q-203 0 -203 -269q0 -154 51 -219.5t151 -65.5q80 0 125 27v187h-165v80h262v-315zM228 -251q38 87 63 174h125q-48 -85 -121 -174h-67z
" />
    <glyph glyph-name="J.o" horiz-adv-x="478" 
d="M175 -9q-86 0 -155 44v91q76 -53 155 -53q65 0 96.5 39.5t31.5 107.5v476h96v-478q0 -102 -59 -164.5t-165 -62.5z" />
    <glyph glyph-name="Jcircumflex.o" horiz-adv-x="478" 
d="M208 777l-37 45q73 57 142 131h77q74 -78 145 -131l-38 -45q-84 46 -145 97q-60 -50 -144 -97zM175 -9q-86 0 -155 44v91q76 -53 155 -53q65 0 96.5 39.5t31.5 107.5v476h96v-478q0 -102 -59 -164.5t-165 -62.5z" />
    <glyph glyph-name="Q.o" horiz-adv-x="664" 
d="M567 -170q-121 -23 -188 17.5t-72 146.5q-117 8 -182 96.5t-65 265.5q0 176 72.5 262.5t199.5 86.5q128 0 200.5 -86.5t72.5 -262.5q0 -162 -55.5 -250t-156.5 -108q5 -64 42.5 -84t131.5 -2v-82zM331 71q88 0 132 64.5t44 220.5q0 144 -44.5 206.5t-131.5 62.5
q-86 0 -130 -62.5t-44 -206.5q0 -156 44 -220.5t130 -64.5z" />
    <glyph glyph-name="S.o" horiz-adv-x="598" 
d="M293 -6q-139 0 -217 52v96q47 -34 96.5 -51.5t124.5 -17.5q70 0 111.5 28t41.5 81q0 52 -35.5 79t-137.5 50q-110 24 -159 69t-49 128q0 86 63.5 139.5t167.5 53.5q128 0 192 -48v-93q-87 61 -190 61q-63 0 -100 -26t-37 -77q0 -49 31.5 -75.5t127.5 -47.5
q118 -25 169.5 -73t51.5 -132q0 -89 -69.5 -142.5t-182.5 -53.5z" />
    <glyph glyph-name="Sacute.o" horiz-adv-x="598" 
d="M240 771q64 97 95 166h128q-69 -89 -152 -166h-71zM293 -6q-139 0 -217 52v96q47 -34 96.5 -51.5t124.5 -17.5q70 0 111.5 28t41.5 81q0 52 -35.5 79t-137.5 50q-110 24 -159 69t-49 128q0 86 63.5 139.5t167.5 53.5q128 0 192 -48v-93q-87 61 -190 61q-63 0 -100 -26
t-37 -77q0 -49 31.5 -75.5t127.5 -47.5q118 -25 169.5 -73t51.5 -132q0 -89 -69.5 -142.5t-182.5 -53.5z" />
    <glyph glyph-name="Scircumflex.o" horiz-adv-x="598" 
d="M176 777l-38 45q79 62 142 131h78q71 -76 144 -131l-38 -45q-83 46 -145 97q-62 -52 -143 -97zM293 -6q-139 0 -217 52v96q47 -34 96.5 -51.5t124.5 -17.5q70 0 111.5 28t41.5 81q0 52 -35.5 79t-137.5 50q-110 24 -159 69t-49 128q0 86 63.5 139.5t167.5 53.5
q128 0 192 -48v-93q-87 61 -190 61q-63 0 -100 -26t-37 -77q0 -49 31.5 -75.5t127.5 -47.5q118 -25 169.5 -73t51.5 -132q0 -89 -69.5 -142.5t-182.5 -53.5z" />
    <glyph glyph-name="Scedilla.o" horiz-adv-x="598" 
d="M317 -189q-89 0 -131 58l50 42q25 -40 79 -40t54 33q0 20 -18.5 29t-64.5 9v52q-134 2 -210 52v96q47 -34 96.5 -51.5t124.5 -17.5q70 0 111.5 28t41.5 81q0 52 -35.5 79t-137.5 50q-110 24 -159 69t-49 128q0 86 63.5 139.5t167.5 53.5q128 0 192 -48v-93
q-87 61 -190 61q-63 0 -100 -26t-37 -77q0 -49 31.5 -75.5t127.5 -47.5q118 -25 169.5 -73t51.5 -132q0 -77 -53.5 -128.5t-143.5 -63.5v-20q46 -4 74.5 -25.5t28.5 -55.5q0 -42 -39 -64t-95 -22z" />
    <glyph glyph-name="Scaron.o" horiz-adv-x="598" 
d="M275 777q-66 73 -144 132l38 44q69 -40 145 -96q67 53 143 97l38 -45q-79 -59 -142 -132h-78zM293 -6q-139 0 -217 52v96q47 -34 96.5 -51.5t124.5 -17.5q70 0 111.5 28t41.5 81q0 52 -35.5 79t-137.5 50q-110 24 -159 69t-49 128q0 86 63.5 139.5t167.5 53.5
q128 0 192 -48v-93q-87 61 -190 61q-63 0 -100 -26t-37 -77q0 -49 31.5 -75.5t127.5 -47.5q118 -25 169.5 -73t51.5 -132q0 -89 -69.5 -142.5t-182.5 -53.5z" />
    <glyph glyph-name="Scommaaccent.o" horiz-adv-x="598" 
d="M293 -6q-139 0 -217 52v96q47 -34 96.5 -51.5t124.5 -17.5q70 0 111.5 28t41.5 81q0 52 -35.5 79t-137.5 50q-110 24 -159 69t-49 128q0 86 63.5 139.5t167.5 53.5q128 0 192 -48v-93q-87 61 -190 61q-63 0 -100 -26t-37 -77q0 -49 31.5 -75.5t127.5 -47.5
q118 -25 169.5 -73t51.5 -132q0 -89 -69.5 -142.5t-182.5 -53.5zM197 -251q39 87 63 174h125q-47 -86 -121 -174h-67z" />
    <glyph glyph-name="IJ.o" horiz-adv-x="976" 
d="M49 0v79h137v538h-137v79h370v-79h-136v-538h136v-79h-370zM645 -9q-87 0 -154 44v91q76 -53 154 -53q66 0 97 39t31 108v476h97v-478q0 -102 -59 -164.5t-166 -62.5z" />
    <glyph glyph-name="a.o" horiz-adv-x="533" 
d="M227 64q66 0 114 55v119h-103q-44 0 -72.5 -21.5t-28.5 -68.5q0 -84 90 -84zM506 1q-51 -12 -91 6.5t-49 61.5q-68 -78 -167 -78q-68 0 -111.5 39t-43.5 107q0 80 51 124.5t135 44.5h111v47q0 45 -28.5 73.5t-82.5 28.5q-44 0 -76 -12t-68 -39v86q62 42 154 42
q87 0 141 -44.5t54 -125.5v-237q0 -71 71 -50v-74z" />
    <glyph glyph-name="agrave.o" horiz-adv-x="533" 
d="M254 598q-84 76 -153 165h123q31 -66 96 -165h-66zM227 64q66 0 114 55v119h-103q-44 0 -72.5 -21.5t-28.5 -68.5q0 -84 90 -84zM506 1q-51 -12 -91 6.5t-49 61.5q-68 -78 -167 -78q-68 0 -111.5 39t-43.5 107q0 80 51 124.5t135 44.5h111v47q0 45 -28.5 73.5t-82.5 28.5
q-44 0 -76 -12t-68 -39v86q62 42 154 42q87 0 141 -44.5t54 -125.5v-237q0 -71 71 -50v-74z" />
    <glyph glyph-name="aacute.o" horiz-adv-x="533" 
d="M180 598q63 94 95 165h128q-70 -90 -152 -165h-71zM227 64q66 0 114 55v119h-103q-44 0 -72.5 -21.5t-28.5 -68.5q0 -84 90 -84zM506 1q-51 -12 -91 6.5t-49 61.5q-68 -78 -167 -78q-68 0 -111.5 39t-43.5 107q0 80 51 124.5t135 44.5h111v47q0 45 -28.5 73.5t-82.5 28.5
q-44 0 -76 -12t-68 -39v86q62 42 154 42q87 0 141 -44.5t54 -125.5v-237q0 -71 71 -50v-74z" />
    <glyph glyph-name="acircumflex.o" horiz-adv-x="533" 
d="M115 604l-38 44q77 60 143 131h77q71 -76 144 -131l-38 -44q-75 41 -145 96q-69 -56 -143 -96zM227 64q66 0 114 55v119h-103q-44 0 -72.5 -21.5t-28.5 -68.5q0 -84 90 -84zM506 1q-51 -12 -91 6.5t-49 61.5q-68 -78 -167 -78q-68 0 -111.5 39t-43.5 107q0 80 51 124.5
t135 44.5h111v47q0 45 -28.5 73.5t-82.5 28.5q-44 0 -76 -12t-68 -39v86q62 42 154 42q87 0 141 -44.5t54 -125.5v-237q0 -71 71 -50v-74z" />
    <glyph glyph-name="atilde.o" horiz-adv-x="533" 
d="M324 608q-45 0 -82 52l-10.5 14t-11 14t-10 10t-11.5 8.5t-11 2.5q-37 0 -36 -82v-10h-73v13q0 67 29.5 109.5t81.5 42.5q21 0 38 -8.5t26 -17.5t21 -25l10.5 -14t11 -14.5t9 -10.5t11 -8.5t10.5 -2.5q36 0 36 81v10h73v-13q0 -67 -30 -109t-82 -42zM227 64q66 0 114 55
v119h-103q-44 0 -72.5 -21.5t-28.5 -68.5q0 -84 90 -84zM506 1q-51 -12 -91 6.5t-49 61.5q-68 -78 -167 -78q-68 0 -111.5 39t-43.5 107q0 80 51 124.5t135 44.5h111v47q0 45 -28.5 73.5t-82.5 28.5q-44 0 -76 -12t-68 -39v86q62 42 154 42q87 0 141 -44.5t54 -125.5v-237
q0 -71 71 -50v-74z" />
    <glyph glyph-name="adieresis.o" horiz-adv-x="533" 
d="M353 612q-27 0 -43 14.5t-16 42.5q0 29 16 44.5t43 15.5q26 0 42 -16t16 -45q0 -27 -16 -41.5t-42 -14.5zM170 612q-27 0 -43 14.5t-16 42.5q0 29 16 44.5t43 15.5q26 0 42 -16t16 -45q0 -27 -16 -41.5t-42 -14.5zM227 64q66 0 114 55v119h-103q-44 0 -72.5 -21.5
t-28.5 -68.5q0 -84 90 -84zM506 1q-51 -12 -91 6.5t-49 61.5q-68 -78 -167 -78q-68 0 -111.5 39t-43.5 107q0 80 51 124.5t135 44.5h111v47q0 45 -28.5 73.5t-82.5 28.5q-44 0 -76 -12t-68 -39v86q62 42 154 42q87 0 141 -44.5t54 -125.5v-237q0 -71 71 -50v-74z" />
    <glyph glyph-name="aring.o" horiz-adv-x="533" 
d="M252 592q-63 0 -99.5 35t-36.5 100q0 64 37 100t99 36t99 -36t37 -100q0 -65 -36.5 -100t-99.5 -35zM252 649q67 0 67 78q0 37 -17 58t-50 21q-67 0 -67 -79q0 -78 67 -78zM227 64q66 0 114 55v119h-103q-44 0 -72.5 -21.5t-28.5 -68.5q0 -84 90 -84zM506 1
q-51 -12 -91 6.5t-49 61.5q-68 -78 -167 -78q-68 0 -111.5 39t-43.5 107q0 80 51 124.5t135 44.5h111v47q0 45 -28.5 73.5t-82.5 28.5q-44 0 -76 -12t-68 -39v86q62 42 154 42q87 0 141 -44.5t54 -125.5v-237q0 -71 71 -50v-74z" />
    <glyph glyph-name="amacron.o" horiz-adv-x="533" 
d="M111 645v76h315v-76h-315zM227 64q66 0 114 55v119h-103q-44 0 -72.5 -21.5t-28.5 -68.5q0 -84 90 -84zM506 1q-51 -12 -91 6.5t-49 61.5q-68 -78 -167 -78q-68 0 -111.5 39t-43.5 107q0 80 51 124.5t135 44.5h111v47q0 45 -28.5 73.5t-82.5 28.5q-44 0 -76 -12t-68 -39
v86q62 42 154 42q87 0 141 -44.5t54 -125.5v-237q0 -71 71 -50v-74z" />
    <glyph glyph-name="abreve.o" horiz-adv-x="533" 
d="M268 603q-84 0 -131 43t-48 132h80q1 -62 24 -87t75 -25t75.5 25t24.5 87h79q-1 -89 -47.5 -132t-131.5 -43zM227 64q66 0 114 55v119h-103q-44 0 -72.5 -21.5t-28.5 -68.5q0 -84 90 -84zM506 1q-51 -12 -91 6.5t-49 61.5q-68 -78 -167 -78q-68 0 -111.5 39t-43.5 107
q0 80 51 124.5t135 44.5h111v47q0 45 -28.5 73.5t-82.5 28.5q-44 0 -76 -12t-68 -39v86q62 42 154 42q87 0 141 -44.5t54 -125.5v-237q0 -71 71 -50v-74z" />
    <glyph glyph-name="aogonek.o" horiz-adv-x="533" 
d="M227 64q66 0 114 55v119h-103q-44 0 -72.5 -21.5t-28.5 -68.5q0 -84 90 -84zM554 -180q-47 -9 -86 -9q-56 0 -91.5 26.5t-35.5 71.5q0 60 59 108q-27 19 -34 52q-68 -78 -167 -78q-68 0 -111.5 39t-43.5 107q0 80 51 124.5t135 44.5h111v47q0 45 -28.5 73.5t-82.5 28.5
q-44 0 -76 -12t-68 -39v86q62 42 154 42q87 0 141 -44.5t54 -125.5v-237q0 -71 71 -50v-74q-33 -8 -62 -3q-32 -32 -32 -67q0 -52 72 -52q32 0 70 9v-68z" />
    <glyph glyph-name="aringacute.o" horiz-adv-x="533" 
d="M256 592q-63 0 -99.5 35t-36.5 100q0 53 25.5 87t71.5 45h-3q64 96 96 165h128q-67 -85 -151 -164q49 -8 77 -42.5t28 -90.5q0 -65 -36.5 -100t-99.5 -35zM256 649q67 0 67 78q0 37 -17 58t-50 21q-67 0 -67 -79q0 -78 67 -78zM227 64q66 0 114 55v119h-103
q-44 0 -72.5 -21.5t-28.5 -68.5q0 -84 90 -84zM506 1q-51 -12 -91 6.5t-49 61.5q-68 -78 -167 -78q-68 0 -111.5 39t-43.5 107q0 80 51 124.5t135 44.5h111v47q0 45 -28.5 73.5t-82.5 28.5q-44 0 -76 -12t-68 -39v86q62 42 154 42q87 0 141 -44.5t54 -125.5v-237
q0 -71 71 -50v-74z" />
    <glyph glyph-name="c.o" horiz-adv-x="487" 
d="M155 261q0 -192 150 -192q67 0 127 46v-89q-60 -35 -138 -35q-108 0 -172 69.5t-64 200.5t64 201t172 70q80 0 138 -36v-88q-61 45 -127 45q-150 0 -150 -192z" />
    <glyph glyph-name="ccedilla.o" horiz-adv-x="487" 
d="M273 -189q-87 0 -131 58l50 42q25 -40 79 -40t54 33q0 20 -18.5 29t-64.5 9v53q-86 16 -135 84t-49 182q0 131 64 201t172 70q80 0 138 -36v-88q-61 45 -127 45q-150 0 -150 -192t150 -192q67 0 127 46v-89q-52 -32 -128 -35v-13q46 -4 75 -25.5t29 -55.5
q0 -42 -39.5 -64t-95.5 -22z" />
    <glyph glyph-name="cacute.o" horiz-adv-x="487" 
d="M198 598q58 84 96 165h128q-73 -92 -153 -165h-71zM155 261q0 -192 150 -192q67 0 127 46v-89q-60 -35 -138 -35q-108 0 -172 69.5t-64 200.5t64 201t172 70q80 0 138 -36v-88q-61 45 -127 45q-150 0 -150 -192z" />
    <glyph glyph-name="ccircumflex.o" horiz-adv-x="487" 
d="M125 604l-38 44q77 60 143 131h77q77 -80 144 -131l-37 -44q-75 40 -146 96q-64 -54 -143 -96zM155 261q0 -192 150 -192q67 0 127 46v-89q-60 -35 -138 -35q-108 0 -172 69.5t-64 200.5t64 201t172 70q80 0 138 -36v-88q-61 45 -127 45q-150 0 -150 -192z" />
    <glyph glyph-name="cdotaccent.o" horiz-adv-x="487" 
d="M262 612q-29 0 -46 14.5t-17 42.5q0 29 17.5 44.5t45.5 15.5q29 0 46 -16t17 -45q0 -27 -17 -41.5t-46 -14.5zM155 261q0 -192 150 -192q67 0 127 46v-89q-60 -35 -138 -35q-108 0 -172 69.5t-64 200.5t64 201t172 70q80 0 138 -36v-88q-61 45 -127 45q-150 0 -150 -192z
" />
    <glyph glyph-name="ccaron.o" horiz-adv-x="487" 
d="M225 604q-70 75 -145 131l38 44q65 -36 145 -96q62 51 144 97l37 -45q-74 -55 -142 -131h-77zM155 261q0 -192 150 -192q67 0 127 46v-89q-60 -35 -138 -35q-108 0 -172 69.5t-64 200.5t64 201t172 70q80 0 138 -36v-88q-61 45 -127 45q-150 0 -150 -192z" />
    <glyph glyph-name="e.o" horiz-adv-x="546" 
d="M280 457q-57 0 -87.5 -35.5t-37.5 -112.5h239q-1 76 -31.5 112t-82.5 36zM456 26q-76 -35 -157 -35q-115 1 -178 68.5t-63 203.5q0 132 60 200.5t164 68.5q91 0 149 -63.5t58 -176.5v-55h-335q4 -90 39.5 -130t107.5 -40q92 0 155 48v-89z" />
    <glyph glyph-name="egrave.o" horiz-adv-x="546" 
d="M286 598q-82 75 -154 165h123q38 -77 97 -165h-66zM280 457q-57 0 -87.5 -35.5t-37.5 -112.5h239q-1 76 -31.5 112t-82.5 36zM456 26q-76 -35 -157 -35q-115 1 -178 68.5t-63 203.5q0 132 60 200.5t164 68.5q91 0 149 -63.5t58 -176.5v-55h-335q4 -90 39.5 -130
t107.5 -40q92 0 155 48v-89z" />
    <glyph glyph-name="eacute.o" horiz-adv-x="546" 
d="M199 598q58 84 96 165h128q-73 -92 -153 -165h-71zM280 457q-57 0 -87.5 -35.5t-37.5 -112.5h239q-1 76 -31.5 112t-82.5 36zM456 26q-76 -35 -157 -35q-115 1 -178 68.5t-63 203.5q0 132 60 200.5t164 68.5q91 0 149 -63.5t58 -176.5v-55h-335q4 -90 39.5 -130
t107.5 -40q92 0 155 48v-89z" />
    <glyph glyph-name="ecircumflex.o" horiz-adv-x="546" 
d="M133 604l-37 44q78 62 142 131h77q73 -77 144 -131l-37 -44q-75 40 -146 96q-64 -54 -143 -96zM280 457q-57 0 -87.5 -35.5t-37.5 -112.5h239q-1 76 -31.5 112t-82.5 36zM456 26q-76 -35 -157 -35q-115 1 -178 68.5t-63 203.5q0 132 60 200.5t164 68.5q91 0 149 -63.5
t58 -176.5v-55h-335q4 -90 39.5 -130t107.5 -40q92 0 155 48v-89z" />
    <glyph glyph-name="edieresis.o" horiz-adv-x="546" 
d="M369 612q-27 0 -43 14.5t-16 42.5q0 29 16 44.5t43 15.5q26 0 42 -16t16 -45q0 -27 -16 -41.5t-42 -14.5zM186 612q-27 0 -43 14.5t-16 42.5q0 29 16 44.5t43 15.5t42.5 -16t15.5 -45q0 -27 -16 -41.5t-42 -14.5zM280 457q-57 0 -87.5 -35.5t-37.5 -112.5h239
q-1 76 -31.5 112t-82.5 36zM456 26q-76 -35 -157 -35q-115 1 -178 68.5t-63 203.5q0 132 60 200.5t164 68.5q91 0 149 -63.5t58 -176.5v-55h-335q4 -90 39.5 -130t107.5 -40q92 0 155 48v-89z" />
    <glyph glyph-name="emacron.o" horiz-adv-x="546" 
d="M120 644v76h315v-76h-315zM280 457q-57 0 -87.5 -35.5t-37.5 -112.5h239q-1 76 -31.5 112t-82.5 36zM456 26q-76 -35 -157 -35q-115 1 -178 68.5t-63 203.5q0 132 60 200.5t164 68.5q91 0 149 -63.5t58 -176.5v-55h-335q4 -90 39.5 -130t107.5 -40q92 0 155 48v-89z" />
    <glyph glyph-name="ebreve.o" horiz-adv-x="546" 
d="M277 603q-84 0 -130.5 43t-47.5 132h79q1 -62 24 -87t75 -25q53 0 76 25t24 87h79q-1 -89 -47.5 -132t-131.5 -43zM280 457q-57 0 -87.5 -35.5t-37.5 -112.5h239q-1 76 -31.5 112t-82.5 36zM456 26q-76 -35 -157 -35q-115 1 -178 68.5t-63 203.5q0 132 60 200.5t164 68.5
q91 0 149 -63.5t58 -176.5v-55h-335q4 -90 39.5 -130t107.5 -40q92 0 155 48v-89z" />
    <glyph glyph-name="edotaccent.o" horiz-adv-x="546" 
d="M277 612q-29 0 -46 14.5t-17 42.5q0 29 17.5 44.5t45.5 15.5q29 0 46 -16t17 -45q0 -27 -17 -41.5t-46 -14.5zM280 457q-57 0 -87.5 -35.5t-37.5 -112.5h239q-1 76 -31.5 112t-82.5 36zM456 26q-76 -35 -157 -35q-115 1 -178 68.5t-63 203.5q0 132 60 200.5t164 68.5
q91 0 149 -63.5t58 -176.5v-55h-335q4 -90 39.5 -130t107.5 -40q92 0 155 48v-89z" />
    <glyph glyph-name="eogonek.o" horiz-adv-x="546" 
d="M280 457q-57 0 -87.5 -35.5t-37.5 -112.5h239q-1 76 -31.5 112t-82.5 36zM479 -180q-47 -9 -86 -9q-56 0 -91.5 26.5t-35.5 71.5q0 43 32 82q-114 1 -177 69t-63 203q0 132 60 200.5t164 68.5q91 0 149 -63.5t58 -176.5v-55h-335q4 -90 39.5 -130t107.5 -40q92 0 155 48
v-89q-46 -20 -87 -28q-33 -32 -33 -67q0 -52 73 -52q30 0 70 9v-68z" />
    <glyph glyph-name="ecaron.o" horiz-adv-x="546" 
d="M239 604q-69 74 -144 131l37 44q71 -40 145 -96q62 51 144 97l37 -45q-77 -58 -142 -131h-77zM280 457q-57 0 -87.5 -35.5t-37.5 -112.5h239q-1 76 -31.5 112t-82.5 36zM456 26q-76 -35 -157 -35q-115 1 -178 68.5t-63 203.5q0 132 60 200.5t164 68.5q91 0 149 -63.5
t58 -176.5v-55h-335q4 -90 39.5 -130t107.5 -40q92 0 155 48v-89z" />
    <glyph glyph-name="f.o" horiz-adv-x="419" 
d="M139 0v444h-102v78h102v45q0 62 37.5 101t91 45t112.5 -10v-74q-34 12 -64.5 13t-54.5 -17.5t-24 -59.5v-43h143v-78h-143v-444h-98z" />
    <glyph glyph-name="j.o" horiz-adv-x="283" 
d="M148 612q-29 0 -46 14.5t-17 42.5q0 29 17.5 44.5t45.5 15.5q29 0 46 -16t17 -45q0 -27 -17 -41.5t-46 -14.5zM30 -181q-36 0 -71 10v81q31 -14 63 -14q78 0 78 83v543h96v-545q0 -78 -46 -118t-120 -40z" />
    <glyph glyph-name="r.o" horiz-adv-x="400" 
d="M181 0h-97v522h96v-89q53 97 148 97q32 0 51 -8v-88q-32 10 -61 10q-87 0 -137 -77v-367z" />
    <glyph glyph-name="racute.o" horiz-adv-x="400" 
d="M174 598q62 94 95 165h128q-70 -90 -152 -165h-71zM181 0h-97v522h96v-89q53 97 148 97q32 0 51 -8v-88q-32 10 -61 10q-87 0 -137 -77v-367z" />
    <glyph glyph-name="rcommaaccent.o" horiz-adv-x="400" 
d="M181 0h-97v522h96v-89q53 97 148 97q32 0 51 -8v-88q-32 10 -61 10q-87 0 -137 -77v-367zM18 -251q39 87 63 174h125q-47 -86 -121 -174h-67z" />
    <glyph glyph-name="rcaron.o" horiz-adv-x="400" 
d="M194 604q-73 77 -144 131l37 44q69 -39 146 -96q60 51 143 97l38 -45q-77 -57 -143 -131h-77zM181 0h-97v522h96v-89q53 97 148 97q32 0 51 -8v-88q-32 10 -61 10q-87 0 -137 -77v-367z" />
    <glyph glyph-name="s.o" horiz-adv-x="482" 
d="M226 -9q-94 0 -169 36v92q71 -51 170 -51q120 0 120 70q0 35 -23 50t-87 28q-97 19 -142 54.5t-45 106.5t56 113t140 42q77 0 143 -30v-89q-64 41 -143 41q-46 0 -75 -17t-29 -52q0 -34 23.5 -50t87.5 -29q97 -18 141 -53t44 -106q0 -73 -61 -114.5t-151 -41.5z" />
    <glyph glyph-name="sacute.o" horiz-adv-x="482" 
d="M179 598q63 94 95 165h128q-70 -90 -152 -165h-71zM226 -9q-94 0 -169 36v92q71 -51 170 -51q120 0 120 70q0 35 -23 50t-87 28q-97 19 -142 54.5t-45 106.5t56 113t140 42q77 0 143 -30v-89q-64 41 -143 41q-46 0 -75 -17t-29 -52q0 -34 23.5 -50t87.5 -29
q97 -18 141 -53t44 -106q0 -73 -61 -114.5t-151 -41.5z" />
    <glyph glyph-name="scircumflex.o" horiz-adv-x="482" 
d="M108 604l-38 44q79 62 142 131h78q71 -76 144 -131l-38 -44q-72 38 -145 96q-69 -56 -143 -96zM226 -9q-94 0 -169 36v92q71 -51 170 -51q120 0 120 70q0 35 -23 50t-87 28q-97 19 -142 54.5t-45 106.5t56 113t140 42q77 0 143 -30v-89q-64 41 -143 41q-46 0 -75 -17
t-29 -52q0 -34 23.5 -50t87.5 -29q97 -18 141 -53t44 -106q0 -73 -61 -114.5t-151 -41.5z" />
    <glyph glyph-name="scedilla.o" horiz-adv-x="482" 
d="M255 -189q-89 0 -131 58l50 42q25 -40 79 -40t54 33q0 20 -18.5 29t-64.5 9v49q-94 0 -167 36v92q71 -51 170 -51q120 0 120 70q0 35 -23 50t-87 28q-97 19 -142 54.5t-45 106.5t56 113t140 42q77 0 143 -30v-89q-64 41 -143 41q-46 0 -75 -17t-29 -52q0 -34 23.5 -50
t87.5 -29q97 -18 141 -53t44 -106q0 -60 -42 -99t-110 -52v-18q46 -4 74.5 -25.5t28.5 -55.5q0 -42 -39 -64t-95 -22z" />
    <glyph glyph-name="scaron.o" horiz-adv-x="482" 
d="M214 604q-67 74 -144 131l38 44q65 -36 145 -96q61 50 143 97l38 -45q-78 -58 -142 -131h-78zM226 -9q-94 0 -169 36v92q71 -51 170 -51q120 0 120 70q0 35 -23 50t-87 28q-97 19 -142 54.5t-45 106.5t56 113t140 42q77 0 143 -30v-89q-64 41 -143 41q-46 0 -75 -17
t-29 -52q0 -34 23.5 -50t87.5 -29q97 -18 141 -53t44 -106q0 -73 -61 -114.5t-151 -41.5z" />
    <glyph glyph-name="scommaaccent.o" horiz-adv-x="482" 
d="M226 -9q-94 0 -169 36v92q71 -51 170 -51q120 0 120 70q0 35 -23 50t-87 28q-97 19 -142 54.5t-45 106.5t56 113t140 42q77 0 143 -30v-89q-64 41 -143 41q-46 0 -75 -17t-29 -52q0 -34 23.5 -50t87.5 -29q97 -18 141 -53t44 -106q0 -73 -61 -114.5t-151 -41.5zM133 -251
q39 87 63 174h125q-47 -86 -121 -174h-67z" />
    <glyph glyph-name="t.o" horiz-adv-x="430" 
d="M290 -8q-79 0 -120.5 45t-41.5 131v276h-100v78h100v144h97v-144h162v-78h-162v-273q0 -100 76 -100q45 0 86 17v-76q-48 -20 -97 -20z" />
    <glyph glyph-name="tcedilla.o" horiz-adv-x="430" 
d="M268 -189q-87 0 -131 58l50 42q25 -40 79 -40t54 33q0 20 -18.5 29t-64.5 9v56q-109 28 -109 170v276h-100v78h100v144h97v-144h162v-78h-162v-273q0 -100 76 -100q45 0 86 17v-76q-46 -19 -88 -20v-14q46 -4 74.5 -25.5t28.5 -55.5q0 -42 -39 -64t-95 -22z" />
    <glyph glyph-name="tcaron.o" horiz-adv-x="430" 
d="M315 614q34 116 41 217h92q-19 -127 -77 -217h-56zM290 -8q-79 0 -120.5 45t-41.5 131v276h-100v78h100v144h97v-144h162v-78h-162v-273q0 -100 76 -100q45 0 86 17v-76q-48 -20 -97 -20z" />
    <glyph glyph-name="tcommaaccent.o" horiz-adv-x="430" 
d="M290 -8q-79 0 -120.5 45t-41.5 131v276h-100v78h100v144h97v-144h162v-78h-162v-273q0 -100 76 -100q45 0 86 17v-76q-48 -20 -97 -20zM147 -251q39 87 63 174h125q-47 -86 -121 -174h-67z" />
    <glyph glyph-name="y.o" horiz-adv-x="512" 
d="M111 -181q-29 0 -65 9v77q32 -8 61 -8q44 0 68.5 26.5t39.5 77.5l-182 521h98l130 -402l126 402h96l-196 -560q-51 -143 -176 -143z" />
    <glyph glyph-name="yacute.o" horiz-adv-x="512" 
d="M163 598q62 94 95 165h128q-76 -95 -152 -165h-71zM111 -181q-29 0 -65 9v77q32 -8 61 -8q44 0 68.5 26.5t39.5 77.5l-182 521h98l130 -402l126 402h96l-196 -560q-51 -143 -176 -143z" />
    <glyph glyph-name="ydieresis.o" horiz-adv-x="512" 
d="M342 612q-26 0 -42 14.5t-16 42.5q0 29 16 44.5t42 15.5q27 0 42.5 -16t15.5 -45q0 -27 -16 -41.5t-42 -14.5zM160 612q-27 0 -43 14.5t-16 42.5q0 29 16 44.5t43 15.5q26 0 41.5 -16t15.5 -45q0 -27 -15.5 -41.5t-41.5 -14.5zM111 -181q-29 0 -65 9v77q32 -8 61 -8
q44 0 68.5 26.5t39.5 77.5l-182 521h98l130 -402l126 402h96l-196 -560q-51 -143 -176 -143z" />
    <glyph glyph-name="ycircumflex.o" horiz-adv-x="512" 
d="M107 604l-38 44q79 62 142 131h78q71 -76 144 -131l-38 -44q-72 38 -145 96q-69 -56 -143 -96zM111 -181q-29 0 -65 9v77q32 -8 61 -8q44 0 68.5 26.5t39.5 77.5l-182 521h98l130 -402l126 402h96l-196 -560q-51 -143 -176 -143z" />
    <glyph glyph-name="ygrave.o" horiz-adv-x="512" 
d="M259 598q-84 76 -153 165h123q31 -66 96 -165h-66zM111 -181q-29 0 -65 9v77q32 -8 61 -8q44 0 68.5 26.5t39.5 77.5l-182 521h98l130 -402l126 402h96l-196 -560q-51 -143 -176 -143z" />
    <glyph glyph-name="two.o" horiz-adv-x="626" 
d="M86 0v119q0 93 54.5 152t156.5 98q92 37 119.5 64t27.5 74q0 57 -44.5 88.5t-126.5 31.5q-92 0 -172 -29v83q86 24 172 24q125 0 197 -53.5t72 -144.5q0 -72 -48 -122t-158 -93q-86 -35 -119.5 -74.5t-33.5 -98.5v-39h367v-80h-464z" />
    <glyph glyph-name="three.o" horiz-adv-x="626" 
d="M255 -9q-101 0 -187 33v86q88 -41 182 -41q189 0 189 132q0 70 -33.5 99t-115.5 29h-96v80h96q73 0 103.5 23.5t30.5 80.5q0 114 -173 114q-101 0 -173 -45v89q81 34 180 34q115 0 188.5 -49t73.5 -140q0 -62 -39 -101t-103 -44q73 -7 116 -54t43 -115q0 -103 -75.5 -157
t-206.5 -54z" />
    <glyph glyph-name="five.o" horiz-adv-x="626" 
d="M272 -9q-93 0 -175 34v85q88 -41 175 -41q182 0 182 146q0 72 -40.5 110t-109.5 38h-206v333h424v-77h-328v-173h123q105 0 170 -58t65 -167q0 -107 -76.5 -168.5t-203.5 -61.5z" />
    <glyph glyph-name="six.o" horiz-adv-x="626" 
d="M383 705q83 0 145 -26v-86q-69 33 -147 33q-107 0 -162.5 -57t-55.5 -165v-42q54 72 177 72q104 0 162.5 -56t58.5 -157q0 -108 -64 -169t-184 -61q-119 0 -183.5 67t-64.5 187v154q0 140 84.5 223t233.5 83zM163 215q0 -146 149 -146q151 0 151 145q0 146 -151 146
q-149 0 -149 -145z" />
    <glyph glyph-name="nine.o" horiz-adv-x="626" 
d="M461 481q0 146 -149 146q-151 0 -151 -145q0 -146 151 -146q149 0 149 145zM241 -9q-83 0 -145 26v86q68 -33 146 -33q107 0 163 57t56 165v42q-56 -72 -177 -72q-104 0 -162.5 56t-58.5 158q0 108 64 168.5t184 60.5q119 0 183.5 -67t64.5 -187v-154q0 -140 -85 -223
t-233 -83z" />
    <glyph glyph-name="question.o" horiz-adv-x="525" 
d="M230 627q-101 0 -164 -42v86q62 34 168 34q105 0 169.5 -53t64.5 -143q0 -173 -229 -197l-4 -90h-76l-5 148q90 7 139 26.5t64 45.5t15 68q0 54 -37.5 85.5t-104.5 31.5zM197 -7q-34 0 -51.5 20t-17.5 53t17.5 53t51.5 20q33 0 50.5 -20t17.5 -53t-17.5 -53t-50.5 -20z
" />
    </font>
</defs>
</svg>
